Важное объявление!
У Нас Все раздачи мультитрекерные, при нуле пиров в релизах, можете смело вставать на закачку!
 
Автор Сообщение

HUNTER

Стаж:
4 года 4 месяца
Сообщений:
56839

Репутация: 101

[+] [-]
Вне форума [Профиль] [ЛС]

Вчера, сегодня, завтра / Ieri, oggi, domani
Страна: Франция, Италия
Жанр: Комедия, мелодрама
Год выпуска: 1963
Продолжительность: 01:58:23
Перевод: Профессиональный (многоголосый закадровый)
Cубтитры: Русские, английские (отключаемые)
Оригинальная аудиодорожка: итальянский
Режиссер: Витторио Де Сика / Vittorio De Sica
В ролях: Софи Лорен, Марчелло Мастроянни, Альдо Джуффре, Агостино Сальвьетти, Лино Маттера, Текла Скарано, Сильвия Монелли, Карло Крокколо, Паскуале Ченнамо, Тонино Чанчи
Описание: Софи Лорен и Марчелло Мастроянни исполнили здесь по три роли в трёх комедийных новеллах о том, как итальянские женщины добиваются желаемого с помощью своей сексуальной привлекательности. Очень эротично выглядит Лорен, сыгравшая: а) жену безработного, вынужденную торговать контрабандными сигаретами, и рожать детей одного за другим, чтобы судебные приставы не описали имущество; б) эгоистичную светскую даму, выкидывающую своего любовника из автомобиля из-за ерунды; в) девицу легкого поведения, дающую обет целомудрия на целую неделю в тот момент, когда приехавший к ней любовник уже готов удушить её в порыве страсти. Во всех этих историях несчастный герой Марчелло Мастроянни пасует перед животной энергией своей пассии.
Доп. информация:
Сэмпл: http://multi-up.com/1050101
Тип релиза: BDRip 1080p
Контейнер: MKV
Видео: MPEG-4 AVC, 9937 Kбит/с, 1920x816 (2,35:1), 23,976 кадра/сек
Аудио: Русский (АС-3, 2 ch, 192 Кбит/с, 48,0 КГц, 16 бит)
Аудио 2: итальянский (AC3, 1 ch, 160 Кбит/с, 48,0 КГц, 16 бит)

MediaInfo

Формат : Matroska
Версия формата : Version 4 / Version 2
Размер файла : 8,68 Гбайт
Продолжительность : 1 ч. 58 м.
Общий поток : 10,5 Мбит/сек
Название фильма : Вчера, сегодня, завтра / Ieri, oggi, domani / 1963 / BDRip
Дата кодирования : UTC 2015-05-24 05:29:07
Программа кодирования : mkvmerge v6.6.0 ('The Edge Of The In Between') built on Dec 1 2013 17:55:00
Библиотека кодирования : libebml v1.3.0 + libmatroska v1.4.1
Видео
Идентификатор : 1
Формат : AVC
Формат/Информация : Advanced Video Codec
Профиль формата : High@L4.1
Параметр CABAC формата : Да
Параметр ReFrames формата : 5 кадров
Идентификатор кодека : V_MPEG4/ISO/AVC
Продолжительность : 1 ч. 58 м.
Битрейт : 9935 Кбит/сек
Ширина : 1920 пикселей
Высота : 816 пикселей
Соотношение сторон : 2,35:1
Режим частоты кадров : Постоянный
Частота кадров : 23,976 кадра/сек
Цветовое пространство : YUV
Субдискретизация насыщенности : 4:2:0
Битовая глубина : 8 бит
Тип развёртки : Прогрессивная
Бит/(Пиксели*Кадры) : 0.264
Размер потока : 8,22 Гбайт (95%)
Библиотека кодирования : x264 core 135 r2345 f0c1c53
Настройки программы : cabac=1 / ref=5 / deblock=1:-1:-1 / analyse=0x3:0x113 / me=umh / subme=10 / psy=1 / psy_rd=1.00:0.15 / mixed_ref=1 / me_range=24 / chroma_me=1 / trellis=2 / 8x8dct=1 / cqm=0 / deadzone=21,11 / fast_pskip=0 / chroma_qp_offset=-3 / threads=6 / lookahead_threads=1 / sliced_threads=0 / nr=0 / decimate=1 / interlaced=0 / bluray_compat=0 / constrained_intra=0 / bframes=8 / b_pyramid=2 / b_adapt=2 / b_bias=0 / direct=1 / weightb=1 / open_gop=0 / weightp=2 / keyint=230 / keyint_min=23 / scenecut=40 / intra_refresh=0 / rc_lookahead=40 / rc=crf / mbtree=0 / crf=20.0 / qcomp=0.60 / qpmin=0 / qpmax=69 / qpstep=4 / vbv_maxrate=50000 / vbv_bufsize=62500 / crf_max=0.0 / nal_hrd=none / ip_ratio=1.40 / pb_ratio=1.30 / aq=1:1.00
Язык : Italian
Default : Да
Forced : Нет
Аудио #1
Идентификатор : 2
Формат : AC-3
Формат/Информация : Audio Coding 3
Расширение режима : CM (complete main)
Параметр Endianness формата : Big
Идентификатор кодека : A_AC3
Продолжительность : 1 ч. 58 м.
Вид битрейта : Постоянный
Битрейт : 192 Кбит/сек
Каналы : 2 канала
Расположение каналов : Front: L R
Частота : 48,0 КГц
Битовая глубина : 16 бит
Метод сжатия : С потерями
Размер потока : 163 Мбайт (2%)
Заголовок : MVO (Film Prestige)
Язык : Russian
Default : Да
Forced : Нет
Аудио #2
Идентификатор : 3
Формат : AC-3
Формат/Информация : Audio Coding 3
Расширение режима : CM (complete main)
Параметр Endianness формата : Big
Идентификатор кодека : A_AC3
Продолжительность : 1 ч. 58 м.
Вид битрейта : Постоянный
Битрейт : 160 Кбит/сек
Каналы : 1 канал
Расположение каналов : Front: C
Частота : 48,0 КГц
Битовая глубина : 16 бит
Метод сжатия : С потерями
Размер потока : 135 Мбайт (2%)
Default : Нет
Forced : Нет
Текст #1
Идентификатор : 4
Формат : UTF-8
Идентификатор кодека : S_TEXT/UTF8
Идентификатор кодека/Информация : UTF-8 Plain Text
Default : Да
Forced : Нет
Текст #2
Идентификатор : 5
Формат : UTF-8
Идентификатор кодека : S_TEXT/UTF8
Идентификатор кодека/Информация : UTF-8 Plain Text
Default : Нет
Forced : Нет

Скриншоты







_________________
Показать сообщения:    

Текущее время: Сегодня 03:42

Часовой пояс: GMT



Вы не можете начинать темы
Вы не можете отвечать на сообщения
Вы не можете редактировать свои сообщения
Вы не можете удалять свои сообщения
Вы не можете голосовать в опросах
Вы не можете прикреплять файлы к сообщениям
Вы не можете скачивать файлы