Важное объявление!
У Нас Все раздачи мультитрекерные, при нуле пиров в релизах, можете смело вставать на закачку!
 
Автор Сообщение

HUNTER

Стаж:
4 года 4 месяца
Сообщений:
56733

Репутация: 101

[+] [-]
Вне форума [Профиль] [ЛС]

Второй шанс / Danny Collins
Страна: США
Студия: Big Indie Pictures
Жанр: драма
Год выпуска: 2015
Продолжительность: 01:47:10
Перевод: Профессиональный (дублированный) iTunes
Cубтитры: английские
Оригинальная аудиодорожка: английский
Режиссер: Дэн Фогельман / Dan Fogelman
В ролях: Аль Пачино, Аннетт Бенинг, Дженнифер Гарнер, Бобби Каннавале, Кристофер Пламмер, Мелисса Бенойст, Ник Офферман, Джош Пек, Арти Манн, Катарина Час
Описание: Когда-то песни Дэнни Коллинза обожал весь мир. Однако уже много лет он ничего не пишет, почивая на лаврах былой славы. Но однажды музыканта находит адресованное ему много лет назад письмо от …Джона Леннона. И это переворачивает всю его жизнь.

Тип релиза: BDRip 720p
Контейнер: MKV
Видео: MPEG-4 AVC, 6892 Кбит/с, 1280x536, 23,976 fps
Аудио: Rus, AC3, 384 kb/s (6 ch), 48 kHz
Аудио 2: Eng, DTS, 1510 kb/s (6 ch), 48 kHz
Формат субтитров: softsub (SRT)

MediaInfo

frame I:1338 Avg QP:12.23 size:192310
frame P:30636 Avg QP:14.10 size: 75900
frame B:122203 Avg QP:16.75 size: 24190
Format : Matroska
Format version : Version 4 / Version 2
File size : 6.58 GiB
Duration : 1h 47mn
Overall bit rate : 8 786 Kbps
Movie name : Второй шанс. (Tonik)
Encoded date : UTC 2015-06-20 04:20:20
Writing application : mkvmerge v7.1.0 ('Good Love') 64bit built on Jul 27 2014 13:06:55
Writing library : libebml v1.3.0 + libmatroska v1.4.1
_STATISTICS_WRITING_APP : mkvmerge v7.1.0 ('Good Love') 64bit built on Jul 27 2014 13:06:55
_STATISTICS_WRITING_DATE_UTC : 2015-06-20 04:20:20
_STATISTICS_TAGS : BPS DURATION NUMBER_OF_FRAMES NUMBER_OF_BYTES
DURATION : 01:47:03.360000000
NUMBER_OF_FRAMES : 200730
NUMBER_OF_BYTES : 308321280
Video
ID : 1
Format : AVC
Format/Info : Advanced Video Codec
Format profile : High@L4.1
Format settings, CABAC : Yes
Format settings, ReFrames : 8 frames
Codec ID : V_MPEG4/ISO/AVC
Duration : 1h 47mn
Bit rate : 6 892 Kbps
Width : 1 280 pixels
Height : 536 pixels
Display aspect ratio : 2.40:1
Frame rate mode : Constant
Frame rate : 23.976 fps
Color space : YUV
Chroma subsampling : 4:2:0
Bit depth : 8 bits
Scan type : Progressive
Bits/(Pixel*Frame) : 0.419
Stream size : 5.03 GiB (76%)
Writing library : x264 core 146 r2538 121396c
Encoding settings : cabac=1 / ref=8 / deblock=1:-2:-2 / analyse=0x3:0x133 / me=umh / subme=10 / psy=1 / psy_rd=1.00:0.00 / mixed_ref=1 / me_range=32 / chroma_me=1 / trellis=2 / 8x8dct=1 / cqm=0 / deadzone=21,11 / fast_pskip=1 / chroma_qp_offset=-2 / threads=16 / lookahead_threads=2 / sliced_threads=0 / nr=0 / decimate=1 / interlaced=0 / bluray_compat=0 / constrained_intra=0 / bframes=8 / b_pyramid=2 / b_adapt=2 / b_bias=0 / direct=3 / weightb=1 / open_gop=0 / weightp=2 / keyint=240 / keyint_min=23 / scenecut=40 / intra_refresh=0 / rc_lookahead=60 / rc=2pass / mbtree=1 / bitrate=6892 / ratetol=0.9 / qcomp=0.60 / qpmin=10 / qpmax=51 / qpstep=4 / cplxblur=20.0 / qblur=0.5 / vbv_maxrate=62500 / vbv_bufsize=78125 / nal_hrd=none / filler=0 / ip_ratio=1.40 / aq=1:0.90
Language : English
Default : Yes
Forced : No
Matrix coefficients : BT.709
_STATISTICS_WRITING_APP : mkvmerge v7.1.0 ('Good Love') 64bit built on Jul 27 2014 13:06:55
_STATISTICS_WRITING_DATE_UTC : 2015-06-20 04:20:20
_STATISTICS_TAGS : BPS DURATION NUMBER_OF_FRAMES NUMBER_OF_BYTES
DURATION : 01:47:10.466000000
NUMBER_OF_FRAMES : 154177
NUMBER_OF_BYTES : 5538687048
Audio #1
ID : 2
Format : AC-3
Format/Info : Audio Coding 3
Mode extension : CM (complete main)
Format settings, Endianness : Big
Codec ID : A_AC3
Duration : 1h 47mn
Bit rate mode : Constant
Bit rate : 384 Kbps
Channel(s) : 6 channels
Channel positions : Front: L C R, Side: L R, LFE
Sampling rate : 48.0 KHz
Bit depth : 16 bits
Compression mode : Lossy
Stream size : 294 MiB (4%)
Language : Russian
Default : Yes
Forced : No
Audio #2
ID : 3
Format : DTS
Format/Info : Digital Theater Systems
Mode : 16
Format settings, Endianness : Big
Codec ID : A_DTS
Duration : 1h 47mn
Bit rate mode : Constant
Bit rate : 1 509 Kbps
Channel(s) : 6 channels
Channel positions : Front: L C R, Side: L R, LFE
Sampling rate : 48.0 KHz
Bit depth : 24 bits
Compression mode : Lossy
Stream size : 1.13 GiB (17%)
Language : English
Default : No
Forced : No
Text
ID : 4
Format : UTF-8
Codec ID : S_TEXT/UTF8
Codec ID/Info : UTF-8 Plain Text
Title : SDH
Language : English
Default : No
Forced : No
Menu #1
00:00:00.000 : en:00:00:00.000
00:03:55.944 : en:00:03:55.944
00:11:27.437 : en:00:11:27.437
00:16:10.428 : en:00:16:10.428
00:19:58.656 : en:00:19:58.656
00:24:40.646 : en:00:24:40.646
00:29:53.375 : en:00:29:53.375
00:36:10.335 : en:00:36:10.335
00:40:14.370 : en:00:40:14.370
00:44:05.518 : en:00:44:05.518
00:49:00.813 : en:00:49:00.813
00:55:55.477 : en:00:55:55.477
01:02:47.514 : en:01:02:47.514
01:07:23.498 : en:01:07:23.498
01:14:47.650 : en:01:14:47.650
01:20:12.850 : en:01:20:12.850
01:25:11.773 : en:01:25:11.773
01:30:40.393 : en:01:30:40.393
01:36:00.838 : en:01:36:00.838
01:41:24.829 : en:01:41:24.829
Menu #2
00:00:00.000 : en:00:00:00.000
00:03:55.944 : en:00:03:55.944
00:11:27.437 : en:00:11:27.437
00:16:10.428 : en:00:16:10.428
00:19:58.656 : en:00:19:58.656
00:24:40.646 : en:00:24:40.646
00:29:53.375 : en:00:29:53.375
00:36:10.335 : en:00:36:10.335
00:40:14.370 : en:00:40:14.370
00:44:05.518 : en:00:44:05.518
00:49:00.813 : en:00:49:00.813
00:55:55.477 : en:00:55:55.477
01:02:47.514 : en:01:02:47.514
01:07:23.498 : en:01:07:23.498
01:14:47.650 : en:01:14:47.650
01:20:12.850 : en:01:20:12.850
01:25:11.773 : en:01:25:11.773
01:30:40.393 : en:01:30:40.393
01:36:00.838 : en:01:36:00.838
01:41:24.829 : en:01:41:24.829

Скриншоты


_________________
Показать сообщения:    

Текущее время: Сегодня 20:25

Часовой пояс: GMT



Вы не можете начинать темы
Вы не можете отвечать на сообщения
Вы не можете редактировать свои сообщения
Вы не можете удалять свои сообщения
Вы не можете голосовать в опросах
Вы не можете прикреплять файлы к сообщениям
Вы не можете скачивать файлы