Важное объявление!
У Нас Все раздачи мультитрекерные, при нуле пиров в релизах, можете смело вставать на закачку!
 
Автор Сообщение

HUNTER

Стаж:
4 года 4 месяца
Сообщений:
56749

Репутация: 101

[+] [-]
Вне форума [Профиль] [ЛС]

Вторая мировая война: взгляд из космоса / World War II From Space
Год выпуска: 2012
Страна: США
Жанр: документальный
Продолжительность: 01:28:18
Перевод: Субтитры
Русские субтитры: есть
Режиссер: Simon George
Описание: 7 декабря 1941 года. Шел уже 27-й месяц хаоса Второй мировой войны. Японские войска штурмовали Шанхай. Немецкие армии стояли у ворот Москвы, оставив за собой 6,5 млн жертв. Нацистская Германия уже захватила континентальную Европу. Осажденная Британия едва держится. А в 5000 км оттуда в США - мир. 76 процентов их граждан поддерживают нейтралитет. В 7:55 утра мир был нарушен. 360 японских военных самолетов напали на Перл-Харбор. Вторая мировая война пришла в Америку. Это война Америки, какой ее никогда прежде не видели, с уникальной точки обзора - из космоса. Мы увидим развертывание важнейших битв и их военной стратегии с поразительной подробностью. Мы обнаружим политические союзы, глобальную битву за ресурсы и невероятное пробуждение силы армии США и их производственной мощи, определившие исход величайшей войны в истории.
Релиз группы:
Доп. информация: Запись с канала "History". Фильм на английском языке. Субтитры: Транс Тайтлс ЛТД.
Сэмпл: http://yadi.sk/d/Q5wsYMyf65u3a
качество: TVRip
формат: AVI
Видео: 1600 Кbps, 704 х 528 (4:3), at 25.000 fps, MPEG-4 Visual (DivX 5) (Packed bitstream)(BVOP)
Аудио: 128 Kbps, 48.0 KHz, 2 channels, MPEG Audio (MP3) (Version 1) (Layer 3) (Joint stereo/MS Stereo)

MediaInfo

General
Complete name : D:\World War II From Space.avi
Format : AVI
Format/Info : Audio Video Interleave
File size : 1.07 GiB
Duration : 1h 28mn
Overall bit rate : 1 738 Kbps
Writing library : VirtualDub-MPEG2 build 24600/release
Video
ID : 0
Format : MPEG-4 Visual
Format settings, BVOP : 1
Format settings, QPel : No
Format settings, GMC : No warppoints
Format settings, Matrix : Default (H.263)
Muxing mode : Packed bitstream
Codec ID : DX50
Codec ID/Hint : DivX 5
Duration : 1h 28mn
Bit rate : 1 600 Kbps
Width : 704 pixels
Height : 528 pixels
Display aspect ratio : 4:3
Frame rate : 25.000 fps
Color space : YUV
Chroma subsampling : 4:2:0
Bit depth : 8 bits
Scan type : Progressive
Compression mode : Lossy
Bits/(Pixel*Frame) : 0.172
Stream size : 1 011 MiB (92%)
Writing library : DivX 6.8.5 (UTC 2009-08-20)
Audio
ID : 1
Format : MPEG Audio
Format version : Version 1
Format profile : Layer 3
Mode : Joint stereo
Mode extension : MS Stereo
Codec ID : 55
Codec ID/Hint : MP3
Duration : 1h 28mn
Bit rate mode : Constant
Bit rate : 128 Kbps
Channel(s) : 2 channels
Sampling rate : 48.0 KHz
Compression mode : Lossy
Stream size : 80.8 MiB (7%)
Alignment : Split accross interleaves
Interleave, duration : 40 ms (1.00 video frame)
Interleave, preload duration : 500 ms

Скриншоты


_________________
Показать сообщения:    

Текущее время: Сегодня 22:34

Часовой пояс: GMT



Вы не можете начинать темы
Вы не можете отвечать на сообщения
Вы не можете редактировать свои сообщения
Вы не можете удалять свои сообщения
Вы не можете голосовать в опросах
Вы не можете прикреплять файлы к сообщениям
Вы не можете скачивать файлы