Важное объявление!
У Нас Все раздачи мультитрекерные, при нуле пиров в релизах, можете смело вставать на закачку!
 
Автор Сообщение

HUNTER

Стаж:
4 года 4 месяца
Сообщений:
56809

Репутация: 101

[+] [-]
Вне форума [Профиль] [ЛС]

Вторая жизнь Уве / En man som heter Ove-
Страна: Швеция
Студия: Nordisk Film, Nordsvensk Filmunderhallning, Sveriges Television (SVT)
Жанр: Драма
Год выпуска: 2015
Продолжительность: 01:55:53
Перевод: Профессиональный (дублированный) iTunes
Cубтитры: Английские, шведские, норвежские, финские
Оригинальная аудиодорожка: Шведский
Режиссер: Ханнес Холм / Hannes Holm
В ролях: Рольф Лассгорд, Бахар Парс, Зозан Акгюн, Тобиас Альмборг, Виктор Боуе, Филип Берг, Анна-Лена Бергелин, Лассе Карлссон
Описание: Кто же он такой, этот самый Уве..? Пожилой въедливый ворчун, достающий соседей вечными придирками. Он впадает в ярость при виде брошенного не туда мусора или неправильно припаркованной машины. И кроет на чем свет стоит легкомысленную семейку новоселов, в которой папаша и гвоздя вбить не способен. Зато Уве умеет все: виртуозно втиснуть свой «сааб» между крыльцом и почтовым ящиком, починить батарею, выколотить скидку у самого прижимистого торговца. В доме и в гараже у него всегда идеальный порядок. Как и в мыслях. Вот только зачем ему пистолет или крюк в потолке, или пригоршня снотворных? Возможно, ответ знает приблудный котище. Его не склонный к сантиментам Уве гнал-гнал, да так и не прогнал…- -Тип релиза: BDRip 1080p
Контейнер: MKV
Видео: AVC, 1920x808 (2.40:1), 13200 Kbps, 24 fps, 0,355 bpp
Аудио: Dolby AC3, 48000Hz, 6ch, 384kbps [RUS]
Аудио 2: DTS, 48000Hz, 6ch, 1536kbps [SWE]
Формат субтитров: softsub (SRT), Forced, SDH

MediaInfo

General
Unique ID : 226895264598538074370048742569928335711 (0xAAB2703D252004EFBABCBD4880CCA15F)
Complete name : D:\Фильмы\En.man.som.heter.Ove.2015.1080p.BluRay.DTS.x264-VietHD.mkv
Format : Matroska
Format version : Version 4 / Version 2
File size : 12.5 GiB
Duration : 1h 55mn
Overall bit rate : 15.4 Mbps
Encoded date : UTC 2016-08-13 13:54:18
Writing application : mkvmerge v9.3.1 ('Mask Machine') 64bit
Writing library : libebml v1.3.4 + libmatroska v1.4.5
Video
ID : 10
Format : AVC
Format/Info : Advanced Video Codec
Format profile : High@L4.1
Format settings, CABAC : Yes
Format settings, ReFrames : 5 frames
Codec ID : V_MPEG4/ISO/AVC
Duration : 1h 55mn
Bit rate : 13.5 Mbps
Width : 1 920 pixels
Height : 808 pixels
Display aspect ratio : 2.40:1
Frame rate mode : Constant
Frame rate : 24.000 fps
Color space : YUV
Chroma subsampling : 4:2:0
Bit depth : 8 bits
Scan type : Progressive
Bits/(Pixel*Frame) : 0.363
Stream size : 10.9 GiB (88%)
Writing library : x264 core 148 r2665kMod a01e339
Encoding settings : cabac=1 / ref=5 / deblock=1:-3:-3 / analyse=0x3:0x133 / me=umh / subme=10 / psy=1 / fade_compensate=0.00 / psy_rd=1.00:0.00 / mixed_ref=1 / me_range=24 / chroma_me=1 / trellis=2 / 8x8dct=1 / cqm=0 / deadzone=21,11 / fast_pskip=0 / chroma_qp_offset=-2 / threads=12 / lookahead_threads=2 / sliced_threads=0 / nr=0 / decimate=0 / interlaced=0 / bluray_compat=0 / constrained_intra=0 / fgo=0 / bframes=7 / b_pyramid=2 / b_adapt=2 / b_bias=0 / direct=3 / weightb=1 / open_gop=0 / weightp=2 / keyint=250 / keyint_min=24 / scenecut=40 / intra_refresh=0 / rc_lookahead=60 / rc=crf / mbtree=0 / crf=18.3000 / qcomp=0.70 / qpmin=0 / qpmax=69 / qpstep=4 / vbv_maxrate=62500 / vbv_bufsize=78125 / crf_max=0.0 / nal_hrd=none / filler=0 / ip_ratio=1.30 / pb_ratio=1.20 / aq=3:0.80
Language : English
Default : Yes
Forced : No
Color range : Limited
Matrix coefficients : BT.709
Audio #1
ID : 1
Format : AC-3
Format/Info : Audio Coding 3
Mode extension : CM (complete main)
Format settings, Endianness : Big
Codec ID : A_AC3
Duration : 1h 55mn
Bit rate mode : Constant
Bit rate : 384 Kbps
Channel(s) : 6 channels
Channel positions : Front: L C R, Side: L R, LFE
Sampling rate : 48.0 KHz
Frame rate : 31.250 fps (1536 spf)
Compression mode : Lossy
Stream size : 318 MiB (2%)
Title : Dub (Itunes)
Language : Russian
Default : Yes
Forced : No
Audio #2
ID : 2
Format : DTS
Format/Info : Digital Theater Systems
Mode : 16
Format settings, Endianness : Big
Codec ID : A_DTS
Duration : 1h 55mn
Bit rate mode : Constant
Bit rate : 1 509 Kbps
Channel(s) : 6 channels
Channel positions : Front: L C R, Side: L R, LFE
Sampling rate : 48.0 KHz
Frame rate : 93.750 fps (512 spf)
Bit depth : 24 bits
Compression mode : Lossy
Stream size : 1.22 GiB (10%)
Language : Swedish
Default : No
Forced : No
Text #1
ID : 3
Format : UTF-8
Codec ID : S_TEXT/UTF8
Codec ID/Info : UTF-8 Plain Text
Duration : 1h 55mn
Bit rate : 43 bps
Count of elements : 993
Stream size : 36.7 KiB (0%)
Title : SDH
Language : English
Default : No
Forced : No
Text #2
ID : 4
Format : UTF-8
Codec ID : S_TEXT/UTF8
Codec ID/Info : UTF-8 Plain Text
Duration : 1h 55mn
Bit rate : 42 bps
Count of elements : 925
Stream size : 35.6 KiB (0%)
Language : English
Default : No
Forced : No
Text #3
ID : 5
Format : UTF-8
Codec ID : S_TEXT/UTF8
Codec ID/Info : UTF-8 Plain Text
Duration : 1h 55mn
Bit rate : 41 bps
Count of elements : 949
Stream size : 34.8 KiB (0%)
Language : Finnish
Default : No
Forced : No
Text #4
ID : 6
Format : UTF-8
Codec ID : S_TEXT/UTF8
Codec ID/Info : UTF-8 Plain Text
Duration : 1h 50mn
Bit rate : 45 bps
Count of elements : 908
Stream size : 36.5 KiB (0%)
Language : Norwegian
Default : No
Forced : No
Text #5
ID : 7
Format : UTF-8
Codec ID : S_TEXT/UTF8
Codec ID/Info : UTF-8 Plain Text
Duration : 3mn 6s
Bit rate : 2 bps
Count of elements : 3
Stream size : 47.0 Bytes (0%)
Title : FORCED
Language : Swedish
Default : Yes
Forced : Yes
Text #6
ID : 8
Format : UTF-8
Codec ID : S_TEXT/UTF8
Codec ID/Info : UTF-8 Plain Text
Duration : 1h 55mn
Bit rate : 47 bps
Count of elements : 993
Stream size : 39.7 KiB (0%)
Title : SDH
Language : Swedish
Default : No
Forced : No
Text #7
ID : 9
Format : UTF-8
Codec ID : S_TEXT/UTF8
Codec ID/Info : UTF-8 Plain Text
Duration : 1h 55mn
Bit rate : 45 bps
Count of elements : 925
Stream size : 38.6 KiB (0%)
Language : Swedish
Default : No
Forced : No
Menu
00:00:00.000 : en:00:00:00.000
00:09:59.875 : en:00:09:59.875
00:19:59.708 : en:00:19:59.708
00:29:59.792 : en:00:29:59.792
00:39:59.917 : en:00:39:59.917
00:50:00.000 : en:00:50:00.000
00:59:59.625 : en:00:59:59.625
01:09:59.750 : en:01:09:59.750
01:19:59.542 : en:01:19:59.542
01:29:59.708 : en:01:29:59.708
01:39:59.750 : en:01:39:59.750
01:49:59.625 : en:01:49:59.625

Скриншоты


_________________
Показать сообщения:    

Текущее время: Сегодня 19:11

Часовой пояс: GMT



Вы не можете начинать темы
Вы не можете отвечать на сообщения
Вы не можете редактировать свои сообщения
Вы не можете удалять свои сообщения
Вы не можете голосовать в опросах
Вы не можете прикреплять файлы к сообщениям
Вы не можете скачивать файлы