Важное объявление!
У Нас Все раздачи мультитрекерные, при нуле пиров в релизах, можете смело вставать на закачку!
 
Автор Сообщение

HUNTER

Стаж:
4 года 4 месяца
Сообщений:
56790

Репутация: 101

[+] [-]
Вне форума [Профиль] [ЛС]

Встреча с Юпитером / Horizon. Encounter with Jupiter
Дата/Год выпуска: 1980
Страна: Великобритания
Жанр: Документальный, космос
Продолжительность: 00:57:07
Перевод: Субтитры
Русские субтитры: есть
Авторы перевода субтитров: Astra Stellari & Anna Spacedust
Формат субтитров: hardsub (неотключаемые)
Оригинальная аудиодорожка: английский
Режиссер: Фишер Дилк / Fisher Dilke
Описание: Фильм про сближение Вояджера с системой планеты Юпитер
качество: VHSRip
формат: AVI
Видео: XviD 673 Кбит/с 576x432
Аудио: AC3 1 ch 128 Кбит/с

MediaInfo

GeneralComplete name : C:\Horizon. Encounter With Jupiter.aviFormat : AVIFormat/Info : Audio Video InterleaveFile size : 331 MiBDuration : 57mn 7sOverall bit rate : 811 KbpsWriting application : VirtualDubMod 1.5.10.3 | www.virtualdub-fr.org || (build 2550/release)Writing library : VirtualDubMod build 2550/release
VideoID : 0Format : MPEG-4 VisualFormat profile : Advanced Simple@L5Format settings, BVOP : 1Format settings, QPel : NoFormat settings, GMC : No warppointsFormat settings, Matrix : Default (H.263)Codec ID : XVIDCodec ID/Hint : XviDDuration : 57mn 7sBit rate : 673 KbpsWidth : 576 pixelsHeight : 432 pixelsDisplay aspect ratio : 4:3Frame rate : 25.000 fpsColor space : YUVChroma subsampling : 4:2:0Bit depth : 8 bitsScan type : ProgressiveCompression mode : LossyBits/(Pixel*Frame) : 0.108Stream size : 275 MiB (83%)Writing library : XviD 1.2.1 (UTC 2008-12-04)
AudioID : 1Format : AC-3Format/Info : Audio Coding 3Mode extension : CM (complete main)Format settings, Endianness : BigCodec ID : 2000Duration : 57mn 7sBit rate mode : ConstantBit rate : 128 KbpsChannel(s) : 1 channelChannel positions : Front: CSampling rate : 48.0 KHzCompression mode : LossyStream size : 52.3 MiB (16%)Alignment : Split accross interleavesInterleave, duration : 40 ms (1.00 video frame)Interleave, preload duratio : 500 ms

Скриншоты


_________________
Показать сообщения:    

Текущее время: Сегодня 11:16

Часовой пояс: GMT



Вы не можете начинать темы
Вы не можете отвечать на сообщения
Вы не можете редактировать свои сообщения
Вы не можете удалять свои сообщения
Вы не можете голосовать в опросах
Вы не можете прикреплять файлы к сообщениям
Вы не можете скачивать файлы