Важное объявление!
У Нас Все раздачи мультитрекерные, при нуле пиров в релизах, можете смело вставать на закачку!
 
Автор Сообщение

HUNTER

Стаж:
4 года 4 месяца
Сообщений:
56842

Репутация: 101

[+] [-]
Вне форума [Профиль] [ЛС]

Встреча с Ураном / Horizon. Uranus Encounter
Дата/Год выпуска: 1986
Страна: Великобритания
Жанр: научно-популярный, астрономия
Продолжительность: 00:53:53
Перевод: Субтитры
Доп. инфо о переводе: Mike Winchster
Русские субтитры: есть
Режиссер: Фишер Дильке / Fisher Dilke
Формат субтитров: hardsub (неотключаемые)
Оригинальная аудиодорожка: английский
Описание: Фильм про пребывание аппарата Вояджер в системе планеты Уран
качество: VHSRip
формат: AVI
Видео: XviD 606kbps 624x464 23.976fps
Аудио: AC3 96kbps 1ch 48000khz

MediaInfo

GeneralComplete name : C:\Horizon. Uranus Encounter (1986).aviFormat : AVIFormat/Info : Audio Video InterleaveFile size : 274 MiBDuration : 53mn 53sOverall bit rate : 711 KbpsWriting application : VirtualDubMod 1.5.10.3 | www.virtualdub-fr.org || (build 2550/release)Writing library : VirtualDubMod build 2550/release
VideoID : 0Format : MPEG-4 VisualFormat profile : Advanced Simple@L5Format settings, BVOP : 1Format settings, QPel : NoFormat settings, GMC : No warppointsFormat settings, Matrix : Default (H.263)Codec ID : XVIDCodec ID/Hint : XviDDuration : 53mn 53sBit rate : 606 KbpsWidth : 624 pixelsHeight : 464 pixelsDisplay aspect ratio : 4:3Frame rate : 23.976 fpsColor space : YUVChroma subsampling : 4:2:0Bit depth : 8 bitsScan type : ProgressiveCompression mode : LossyBits/(Pixel*Frame) : 0.087Stream size : 234 MiB (85%)Writing library : XviD 1.2.1 (UTC 2008-12-04)
AudioID : 1Format : AC-3Format/Info : Audio Coding 3Mode extension : CM (complete main)Format settings, Endianness : BigCodec ID : 2000Duration : 53mn 53sBit rate mode : ConstantBit rate : 96.0 KbpsChannel(s) : 1 channelChannel positions : Front: CSampling rate : 48.0 KHzCompression mode : LossyStream size : 37.0 MiB (13%)Alignment : Split accross interleavesInterleave, duration : 42 ms (1.00 video frame)Interleave, preload duratio : 500 ms

Скриншоты


_________________
Показать сообщения:    

Текущее время: Сегодня 14:06

Часовой пояс: GMT



Вы не можете начинать темы
Вы не можете отвечать на сообщения
Вы не можете редактировать свои сообщения
Вы не можете удалять свои сообщения
Вы не можете голосовать в опросах
Вы не можете прикреплять файлы к сообщениям
Вы не можете скачивать файлы