Важное объявление!
У Нас Все раздачи мультитрекерные, при нуле пиров в релизах, можете смело вставать на закачку!
 
Автор Сообщение

HUNTER

Стаж:
4 года 4 месяца
Сообщений:
56720

Репутация: 101

[+] [-]
Вне форума [Профиль] [ЛС]

Встреча с Нептуном / Horizon. Encounter with Neptune
Дата/Год выпуска: 1990
Страна: Великобритания
Жанр: научно-популярный, астрономия
Продолжительность: 00:48:12
Перевод: субтитры
Русские субтитры: есть
Субтитры: Mike Winchster, Astra Stellari & Anna Spacedust
Формат субтитров: hardsub (неотключаемые)
Оригинальная аудиодорожка: английский
Режиссер: Фишер Дилк / Fisher Dilke
Описание: Фильм про пребывание аппарата Вояджер в системе планеты Уран
качество: VHSRip
формат: AVI
Видео: XviD 778 Кбит/с 640x480 25 fps
Аудио: MP3 1 ch 64 Кбит/с 44.1 khz

MediaInfo

C:\Documents and Settings\Администратор\Мои документы\Horizon. Encounter With Neptune (1990).avi General Complete name : C:\Documents and Settings\Администратор\Мои документы\Horizon. Encounter With Neptune (1990).avi Format : AVI Format/Info : Audio Video Interleave File size : 295 MiB Duration : 48mn 12s Overall bit rate : 854 Kbps Writing application : VirtualDubMod 1.5.10.3 | www.virtualdub-fr.org || (build 2550/release) Writing library : VirtualDub build 35390/release Video #0 ID : 0 Format : MPEG-4 Visual Format profile : Advanced Simple@L5 Format settings, BVOP : 1 Format settings, QPel : No Format settings, GMC : No warppoints Format settings, Matrix : Default (H.263) Codec ID : XVID Codec ID/Hint : XviD Duration : 48mn 12s Bit rate : 778 Kbps Width : 640 pixels Height : 480 pixels Display aspect ratio : 4:3 Frame rate : 25.000 fps Color space : YUV Chroma subsampling : 4:2:0 Bit depth : 8 bits Scan type : Progressive Compression mode : Lossy Bits/(Pixel*Frame) : 0.101 Stream size : 268 MiB (91%) Writing library : XviD 1.2.1 (UTC 2008-12-04) Audio #1 ID : 1 Format : MPEG Audio Format version : Version 1 Format profile : Layer 3 Codec ID : 55 Codec ID/Hint : MP3 Duration : 48mn 12s Bit rate mode : Constant Bit rate : 64.0 Kbps Channel(s) : 1 channel Sampling rate : 44.1 KHz Compression mode : Lossy Stream size : 22.1 MiB (7%) Alignment : Aligned on interleaves Interleave, duration : 26 ms (0.65 video frame) Interleave, preload duration : 522 ms

Скриншоты


_________________
Показать сообщения:    

Текущее время: Сегодня 07:21

Часовой пояс: GMT



Вы не можете начинать темы
Вы не можете отвечать на сообщения
Вы не можете редактировать свои сообщения
Вы не можете удалять свои сообщения
Вы не можете голосовать в опросах
Вы не можете прикреплять файлы к сообщениям
Вы не можете скачивать файлы