Важное объявление!
У Нас Все раздачи мультитрекерные, при нуле пиров в релизах, можете смело вставать на закачку!
 
Автор Сообщение

димитри37

Стаж:
3 года 8 месяцев
Сообщений:
1237

Репутация: 127

[+] [-]
Вне форума [Профиль] [ЛС]

Вспомнить все / Total Recall
Расширенная версия / Extended cut
Страна: США, Канада
Студия: Original Film
Жанр: Фантастика / боевик / триллер
Год выпуска: 2012
Продолжительность: 2:10:16
Перевод 1: Профессиональный (дублированный)
Перевод 2: Авторский (одноголосый закадровый) Гаврилов
Перевод 3: Авторский (одноголосый закадровый) Немахов
Оригинальная аудиодорожка: Английская
Cубтитры: Русские (Форсированные, лицензия, комментарии Л. Уайзмана), английские
Режиссер: Лен Уайзман / Len Wiseman
В ролях: Колин Фаррелл, Джессика Бил, Кейт Бекинсейл, Брайан Крэнстон, Букем Вудбайн, Билл Найи, Джон Чо и др.
Описание: Он — обычный рабочий-строитель, живущий в маленькой квартирке в захудалом районе города будущего где-то в Новой Азии. Хотя собственная жизнь его в целом устраивает, он не может избавиться от чувства, что ему хочется чего-то большего. Потребность в новых будоражащих впечатлениях приводит его в офис компании «Вспомнить всё», имплантирующей в память своих клиентов воспоминания-фантазии, которые они могут получить, не рискуя при этом пережить сами события в реальности.
Сэмпл: SendFile.su
Тип релиза: BDRip 1080p
Контейнер: MKV
Видео: BDRip 1080p / 1920x800 / 23.976 fps / 7450 kbps
Аудио 1: Дубляж / AC3 / 5.1 ch / 640 kbps
Аудио 2: Оригинальная / AC3 / 5.1 ch / 640 kbps
Вне контейнера отдельными файлами:
---------------------------------------
Аудио 3: Гаврилов / AC3 / 5.1 ch / 640 kbps
Аудио 4: Немахов / AC3 / 5.1 ch / 640 kbps
Формат субтитров: softsub (SRT)

MediaInfo

General
Format : Matroska
Format version : Version 2
File size : 7.94 GiB
Duration : 2h 10mn
Overall bit rate : 8 728 Kbps
Movie name : Total Recall (2012)
Writing application : mkvmerge v3.4.0 ('Rapunzel') сборка от Jun 2 2010 23:27:56
Writing library : libebml v0.8.1 + libmatroska v0.9.0
Video
ID : 1
Format : AVC
Format/Info : Advanced Video Codec
Format profile : High@L4.1
Format settings, CABAC : Yes
Format settings, ReFrames : 5 frames
Codec ID : V_MPEG4/ISO/AVC
Duration : 2h 10mn
Bit rate : 7 450 Kbps
Width : 1 920 pixels
Height : 800 pixels
Display aspect ratio : 2.40:1
Frame rate : 23.976 fps
Color space : YUV
Chroma subsampling : 4:2:0
Bit depth : 8 bits
Scan type : Progressive
Bits/(Pixel*Frame) : 0.202
Stream size : 6.62 GiB (83%)
Title : BDRip 1080p by nabby_3
Writing library : x264 core 125 r2200 999b753
Encoding settings : cabac=1 / ref=5 / deblock=1:-1:-1 / analyse=0x3:0x133 / me=umh / subme=11 / psy=1 / psy_rd=1.05:0.03 / mixed_ref=1 / me_range=32 / chroma_me=1 / trellis=2 / 8x8dct=1 / cqm=0 / deadzone=21,11 / fast_pskip=0 / chroma_qp_offset=-3 / threads=9 / lookahead_threads=1 / sliced_threads=0 / nr=0 / decimate=1 / interlaced=0 / bluray_compat=0 / constrained_intra=0 / bframes=9 / b_pyramid=2 / b_adapt=2 / b_bias=0 / direct=3 / weightb=1 / open_gop=0 / weightp=2 / keyint=240 / keyint_min=22 / scenecut=40 / intra_refresh=0 / rc_lookahead=120 / rc=2pass / mbtree=1 / bitrate=7450 / ratetol=1.0 / qcomp=0.72 / qpmin=0 / qpmax=69 / qpstep=4 / cplxblur=20.0 / qblur=0.5 / ip_ratio=1.40 / aq=2:0.90
Language : English
Default : No
Forced : No
Audio #1
ID : 2
Format : AC-3
Format/Info : Audio Coding 3
Mode extension : CM (complete main)
Format settings, Endianness : Big
Codec ID : A_AC3
Duration : 2h 10mn
Bit rate mode : Constant
Bit rate : 640 Kbps
Channel(s) : 6 channels
Channel positions : Front: L C R, Side: L R, LFE
Sampling rate : 48.0 KHz
Bit depth : 16 bits
Compression mode : Lossy
Stream size : 596 MiB (7%)
Title : Dub / AC3 / 5.1 ch / 640 kbps
Language : Russian
Default : Yes
Forced : No
Audio #2
ID : 3
Format : AC-3
Format/Info : Audio Coding 3
Mode extension : CM (complete main)
Format settings, Endianness : Big
Codec ID : A_AC3
Duration : 2h 10mn
Bit rate mode : Constant
Bit rate : 640 Kbps
Channel(s) : 6 channels
Channel positions : Front: L C R, Side: L R, LFE
Sampling rate : 48.0 KHz
Bit depth : 16 bits
Compression mode : Lossy
Stream size : 596 MiB (7%)
Title : Original / AC3 / 5.1 ch / 640 kbps
Language : English
Default : No
Forced : No
Text #1
ID : 4
Format : UTF-8
Codec ID : S_TEXT/UTF8
Codec ID/Info : UTF-8 Plain Text
Title : Forced
Language : Russian
Default : Yes
Forced : No
Text #2
ID : 5
Format : UTF-8
Codec ID : S_TEXT/UTF8
Codec ID/Info : UTF-8 Plain Text
Title : Russian
Language : Russian
Default : No
Forced : No
Text #3
ID : 6
Format : UTF-8
Codec ID : S_TEXT/UTF8
Codec ID/Info : UTF-8 Plain Text
Title : English
Language : English
Default : No
Forced : No
Text #4
ID : 7
Format : UTF-8
Codec ID : S_TEXT/UTF8
Codec ID/Info : UTF-8 Plain Text
Title : Len Wiseman's commentary
Language : Russian
Default : No
Forced : No
Menu
00:00:00.000 : en:Chapter 1
00:08:45.775 : en:Chapter 2
00:18:00.704 : en:Chapter 3
00:24:13.243 : en:Chapter 4
00:31:19.877 : en:Chapter 5
00:39:54.266 : en:Chapter 6
00:45:38.819 : en:Chapter 7
00:49:45.607 : en:Chapter 8
00:58:12.280 : en:Chapter 9
01:05:40.185 : en:Chapter 10
01:15:06.960 : en:Chapter 11
01:21:05.109 : en:Chapter 12
01:27:23.112 : en:Chapter 13
01:37:45.776 : en:Chapter 14
01:43:17.649 : en:Chapter 15
01:51:29.682 : en:Chapter 16

x264 2-nd pass

x264 [info]: frame I:1691 Avg QP:13.94 size:161966
x264 [info]: frame P:52384 Avg QP:17.17 size: 60574
x264 [info]: frame B:133328 Avg QP:18.30 size: 28705
x264 [info]: consecutive B-frames: 5.6% 5.1% 20.8% 22.8% 17.2% 25.4% 2.0% 0.3% 0.6% 0.2%
encoded 187403 frames, 3.62 fps, 7445.21 kb/s
Показать сообщения:    

Текущее время: Сегодня 20:33

Часовой пояс: GMT



Вы не можете начинать темы
Вы не можете отвечать на сообщения
Вы не можете редактировать свои сообщения
Вы не можете удалять свои сообщения
Вы не можете голосовать в опросах
Вы не можете прикреплять файлы к сообщениям
Вы не можете скачивать файлы