Важное объявление!
У Нас Все раздачи мультитрекерные, при нуле пиров в релизах, можете смело вставать на закачку!
 
Автор Сообщение

HUNTER

Стаж:
4 года 4 месяца
Сообщений:
56749

Репутация: 101

[+] [-]
Вне форума [Профиль] [ЛС]

Вспомнить всё / Total Recall
Год выпуска: 2012
Страна: США, Канада
Студия: Original Film
Продолжительность: 01:53:26
Перевод: Профессиональный (дублированный)
Оригинальная аудиодорожка: английский
Субтитры: русский
Жанр: фантастика, боевик, триллер, приключения
Режиссер:Лен Уайзман / Len Wiseman
В ролях: Колин Фаррелл, Кейт Бекинсейл, Джессика Бил, Брайан Крэнстон, Джон Чо, Букем Вудбайн, Билл Найи, Уилл Юн Ли, Милтон Барнс, Джеймс Макгоун...
Роли дублировали: Александр Гаврилин, Марьяна Спивак, Елена Ивасишина, Валерий Сторожик, Дмитрий Курта...
Описание: Он — обычный рабочий-строитель, живущий в маленькой квартирке в захудалом районе города будущего где-то в Новой Азии. Хотя собственная жизнь его в целом устраивает, он не может избавиться от чувства, что ему хочется чего-то большего. Потребность в новых будоражащих впечатлениях приводит его в офис компании «Вспомнить всё», имплантирующей в память своих клиентов воспоминания-фантазии, которые они могут получить не рискуя при этом пережить сами события в реальности. Пока герой выбирает, какие именно воспоминания ему приобрести, отряд спецназа штурмует комнату, где он находится, и уже было берет его под арест. К своему собственному удивлению, он молниеносно уничтожает весь отряд при помощи невероятных бойцовских навыков, о владении которыми он и не подозревал…-
-Исходник: DVD9 R5
Качество: DVDRip-AVC
Формат: MKV
Видео: 720x424@1024x424 (2.40:1), 25.000 fps, H264 ~1925 kbps avg, 0.252 bit/pixel
Аудио 1: Русский: 48 kHz, Dolby AC3, 6 ch, 384.00 kbps Constant | дублированный
Аудио 2: Английский: 48 kHz, Dolby AC3, 6 ch, 448.00 kbps Constant
Формат субтитров: SoftSub (srt)

MediaInfo

Общее
Полное имя : Vspomnit.vse.2012.D.DVDRip-AVC_[Youtracker]_by_avproh.mkv
Формат : Matroska
Версия формата : Version 2
Размер файла : 2,18 Гбайт
Продолжительность : 1 ч. 53 м.
Общий поток : 2757 Кбит/сек
Дата кодирования : UTC 2012-11-07 04:21:05
Программа кодирования : mkvmerge v5.8.0 ('No Sleep / Pillow') built on Sep 2 2012 15:37:04
Библиотека кодирования : libebml v1.2.3 + libmatroska v1.3.0
Видео
Идентификатор : 1
Формат : AVC
Формат/Информация : Advanced Video Codec
Профиль формата : High@L4.1
Параметр CABAC формата : Да
Параметр ReFrames формата : 11 кадров
Идентификатор кодека : V_MPEG4/ISO/AVC
Продолжительность : 1 ч. 53 м.
Битрейт : 1925 Кбит/сек
Ширина : 720 пикселей
Высота : 424 пикселя
Соотношение сторон : 2,40:1
Частота кадров : 25,000 кадров/сек
Цветовое пространство : YUV
Субдискретизация насыщенности : 4:2:0
Битовая глубина : 8 бит
Тип развёртки : Прогрессивная
Бит/(Пиксели*Кадры) : 0.252
Размер потока : 1,48 Гбайт (68%)
Библиотека кодирования : x264 core 119 r2106 07efeb4
Настройки программы : cabac=1 / ref=11 / deblock=1:-2:-1 / analyse=0x3:0x113 / me=umh / subme=9 / psy=1 / psy_rd=1.00:0.20 / mixed_ref=1 / me_range=32 / chroma_me=1 / trellis=1 / 8x8dct=1 / cqm=0 / deadzone=21,11 / fast_pskip=0 / chroma_qp_offset=-3 / threads=9 / sliced_threads=0 / nr=0 / decimate=0 / interlaced=0 / bluray_compat=0 / constrained_intra=0 / bframes=8 / b_pyramid=2 / b_adapt=2 / b_bias=0 / direct=3 / weightb=1 / open_gop=0 / weightp=2 / keyint=250 / keyint_min=25 / scenecut=40 / intra_refresh=0 / rc_lookahead=60 / rc=2pass / mbtree=1 / bitrate=1925 / ratetol=1.0 / qcomp=0.60 / qpmin=0 / qpmax=69 / qpstep=4 / cplxblur=20.0 / qblur=0.5 / ip_ratio=1.40 / aq=1:1.00
Default : Да
Forced : Нет
Аудио #1
Идентификатор : 2
Формат : AC-3
Формат/Информация : Audio Coding 3
Расширение режима : CM (complete main)
Параметр Endianness формата : Big
Идентификатор кодека : A_AC3
Продолжительность : 1 ч. 53 м.
Вид битрейта : Постоянный
Битрейт : 384 Кбит/сек
Каналы : 6 каналов
Расположение каналов : Front: L C R, Side: L R, LFE
Частота : 48,0 КГц
Битовая глубина : 16 бит
Метод сжатия : С потерями
Размер потока : 312 Мбайт (14%)
Язык : Russian
Default : Да
Forced : Нет
Аудио #2
Идентификатор : 3
Формат : AC-3
Формат/Информация : Audio Coding 3
Расширение режима : CM (complete main)
Параметр Endianness формата : Big
Идентификатор кодека : A_AC3
Продолжительность : 1 ч. 53 м.
Вид битрейта : Постоянный
Битрейт : 448 Кбит/сек
Каналы : 6 каналов
Расположение каналов : Front: L C R, Side: L R, LFE
Частота : 48,0 КГц
Битовая глубина : 16 бит
Метод сжатия : С потерями
Размер потока : 364 Мбайт (16%)
Язык : English
Default : Нет
Forced : Нет
Текст
Идентификатор : 4
Формат : UTF-8
Идентификатор кодека : S_TEXT/UTF8
Идентификатор кодека/Информация : UTF-8 Plain Text
Язык : Russian
Default : Нет
Forced : Нет

Скриншоты


_________________


Последний раз редактировалось: HUNTER (2012-11-07 10:35), всего редактировалось 2 раз(а)
Показать сообщения:    

Текущее время: Сегодня 04:39

Часовой пояс: GMT



Вы не можете начинать темы
Вы не можете отвечать на сообщения
Вы не можете редактировать свои сообщения
Вы не можете удалять свои сообщения
Вы не можете голосовать в опросах
Вы не можете прикреплять файлы к сообщениям
Вы не можете скачивать файлы