Важное объявление!
У Нас Все раздачи мультитрекерные, при нуле пиров в релизах, можете смело вставать на закачку!
 
Автор Сообщение

HUNTER

Стаж:
4 года 4 месяца
Сообщений:
56842

Репутация: 101

[+] [-]
Вне форума [Профиль] [ЛС]

Вселенная / The Universe
Дата/Год выпуска: 2007
Страна: США
Жанр: документальный
Продолжительность: 78 x ~ 00:44:30
Перевод: Профессиональный (двухголосый закадровый)
Русские субтитры: нет
Оригинальная аудиодорожка: английский
Режиссер: Лаура Верклан, Колин Кэмпбелл, Тони Лонг, Дуглас Коэн, Эндрю Нок, Роберт Бимер
Описание: В сериале Вселенная с помощью современной компьютерной графики и, основываясь на передовых исследованиях в области космоса, создатели фильмы смогли воссоздать то, что происходит на других планетах, в других галактиках, вообразить какие формы жизни могли бы развиться в других атмосферах. Вы сможете увидеть космические бедствия, параллельные вселенные, скорость света и узнать многое другое о тайнах космоса.

Сэмпл: http://multi-up.com/968666
качество: HDRip
формат: AVI
Видео: 720x400 at 23.976 fps, XviD, ~2000 kbps
Аудио: Русский, AC3, 2ch, ~192 kbps, 48 kHz
Аудио 2: Английский, AC3, 2ch, ~192 kbps, 48 kHz

Список выпусков/серий

Первый сезон (2007)
Серия 01. Секреты Солнца
Серия 02. Марс: Красная планета
Серия 03. Гибель земли
Серия 04. Юпитер: Гигантская планета
Серия 05. Луна
Серия 06. Космический корабль Земля
Серия 07. Внутренние планеты: Меркурий и Венера
Серия 08. Сатурн - Властелин колец
Серия 09. Чужие галактики
Серия 10. Жизнь и смерть звезды
Серия 11. Внешние планеты
Серия 12. Самые опасные места во Вселенной
Серия 13. В поисках внеземного разума
Серия 14. По ту сторону Большого Взрыва
Второй сезон (2008)
Серия 01. Далекие планеты
Серия 02. Космические дыры
Серия 03. Загадки Луны
Серия 04. Млечный путь
Серия 05. Чужие Луны
Серия 06. Темная материя
Серия 07. Космобиология
Серия 08. Космические путешествия
Серия 09. Сверхновые
Серия 10. Созвездия
Серия 11. Неразгаданные тайны
Серия 12. Космические столкновения
Серия 13. Колонизация космоса
Серия 14. Туманности
Серия 15. Необузданная погода
Серия 16. Наибольшие объекты в космосе
Серия 17. Гравитация
Серия 18. Космический апокалипсис
Третий сезон (2008)
Серия 01. Катастрофы в космосе
Серия 02. Параллельные Вселенные
Серия 03. Скорость света
Серия 04. Секс в космосе
Серия 05. Облики чужих
Серия 06. Смертоносные кометы и астероиды
Серия 07. Проживание в космосе
Серия 08. Останавливая Армагеддон
Серия 09. Другая Земля
Серия 10. Странные вещи
Серия 11. На краю космоса
Серия 12. Космические явления
Четвертый сезон (2009)
Серия 01. Смертоносные звёзды
Серия 02. День, когда исчезнет Луна
Серия 03. Это упало из космоса
Серия 04. Крупнейшие взрывы
Серия 05. Охота на планеты с кольцами
Серия 06. 10 способов уничтожить Землю
Серия 07. В поисках космических скоплений
Серия 08. Космические войны
Серия 09. Жидкости во Вселенной
Серия 10. Пульсары и Квазары
Серия 11. Научная фантастика, научный факт
Серия 12. Экстремальная энергия
Пятый сезон (2010)
Серия 01. Семь чудес Солнечной системы
Серия 02. Марс - Новые факты
Серия 03. Магнитная буря
Серия 04. Путешествия во времени
Серия 05. Тайны космических исследований
Серия 06. Астероидная атака
Серия 07. Полное затмение
Серия 08. Мрачное будущее Солнца
Шестой сезон (2011)
Серия 01. Катастрофы, которые изменили планеты
Серия 02. Немезида - Злой Близнец Солнца
Серия 03. Как создалась Солнечная система
Серия 04. Аварийная посадка на Марс
Серия 05. Худшие дни на планете Земля
Серия 06. НЛО. Подлинная история
Серия 07. Бог и Вселенная
Седьмой сезон (2012)
Серия 01. Огромное, далекое, быстрое
Серия 02. Глубокая заморозка
Серия 03. Наше место в Млечном Пути
Серия 04. Звуки космоса
Серия 05. Микро-Вселенная
Серия 06. Верхом на комете
Серия 07. Как космос изменял историю

MediaInfo

The.Universe.1-7.Seasons.2007-2012.BDRip.480p.ENG.RUS\The.Universe.Season.5\The.Universe.S05E02.Mars.The.New.Evidence.BDRip.ENG.RUS.aviFormat : AVIFormat/Info : Audio Video InterleaveFile size : 756 MiBDuration : 44mn 2sOverall bit rate : 2 400 KbpsWriting application : XviD4PSP 7.0 / 55.26.100
VideoID : 0Format : MPEG-4 VisualFormat profile : Advanced Simple@L5Format settings, BVOP : 1Format settings, QPel : NoFormat settings, GMC : No warppointsFormat settings, Matrix : Default (H.263)Codec ID : XVIDCodec ID/Hint : XviDDuration : 44mn 2sBit rate : 1 999 KbpsWidth : 720 pixelsHeight : 400 pixelsDisplay aspect ratio : 16:9Frame rate : 23.976 fpsColor space : YUVChroma subsampling : 4:2:0Bit depth : 8 bitsScan type : ProgressiveCompression mode : LossyBits/(Pixel*Frame) : 0.290Stream size : 630 MiB (83%)Title : Episode 2: Mars: The New Evidence / Н бє Н®г»Ґ 㩤峥뽱г / Н бє Н®г»Ґ б«ІаЁІ010) - Release for HDCLUBWriting library : XviD 64
Audio #1ID : 1Format : AC-3Format/Info : Audio Coding 3Mode extension : CM (complete main)Format settings, Endianness : BigCodec ID : 2000Duration : 44mn 0sBit rate mode : ConstantBit rate : 192 KbpsChannel(s) : 2 channelsChannel positions : Front: L RSampling rate : 48.0 KHzBit depth : 16 bitsCompression mode : LossyStream size : 60.4 MiB (8%)Alignment : Aligned on interleavesInterleave, duration : 32 ms (0.77 video frame)Title : 48KHz/16-bit, AC3, 2.0 (L,R) ch, ~192 kbps - Н­пЈ®гЇ«п±»йЎ§б« е±®г»©
Audio #2ID : 2Format : AC-3Format/Info : Audio Coding 3Mode extension : CM (complete main)Format settings, Endianness : BigCodec ID : 2000Duration : 44mn 2sBit rate mode : ConstantBit rate : 192 KbpsChannel(s) : 2 channelsChannel positions : Front: L RSampling rate : 48.0 KHzBit depth : 16 bitsCompression mode : LossyStream size : 60.5 MiB (8%)Alignment : Aligned on interleavesInterleave, duration : 32 ms (0.77 video frame)Title : English: 48KHz/24-bit, DTS, 2.0 (L,R) ch, ~1509 kbps

Скриншоты


_________________
Показать сообщения:    

Текущее время: Сегодня 19:41

Часовой пояс: GMT



Вы не можете начинать темы
Вы не можете отвечать на сообщения
Вы не можете редактировать свои сообщения
Вы не можете удалять свои сообщения
Вы не можете голосовать в опросах
Вы не можете прикреплять файлы к сообщениям
Вы не можете скачивать файлы
Наши партнеры: интернет магазин Ивановского трикотажа textilla.ru