Важное объявление!
У Нас Все раздачи мультитрекерные, при нуле пиров в релизах, можете смело вставать на закачку!
 
Автор Сообщение

HUNTER

Стаж:
4 года 4 месяца
Сообщений:
56755

Репутация: 101

[+] [-]
Вне форума [Профиль] [ЛС]

Все решается в среду / Большая среда / Big Wednesday
Страна: США
Студия: A-Team
Жанр: драма, спорт
Год выпуска: 1978
Продолжительность: 01:59:38
Перевод: Авторский (одноголосый закадровый) С. Визгунов
Cубтитры: русские, английские
Оригинальная аудиодорожка: английский
Режиссер: Джон Милиус / John Milius
В ролях: Ян-Майкл Винсент, Уильям Кэтт, Гэри Бьюзи, Патти Д’Арбанвиль, Ли Пурселл, Сэм Мелвилл, Дэррел Фетти, Джерри Лопес, Хэнк Уорден, Джо Спинелл
Описание: Это фильм о трех серферах из Малибу (Калифорния). Режиссер Джон Милиус открывает нам настоящую Америку шестидесятых. Завораживающая красота Тихого океана показана в фильме, как ни в одном другом.Одного из персонажей зовут Медведь, это собирательный образ самого Джона Милиуса и Эрнеста Хемингуэя. Главные герои фильма - трое друзей-подростков, каждый из них знаменитый серфер, а Мэтт Джонсон - просто легенда. Вся их жизнь - серфинг. Но приходит время взрослеть: первая любовь, призыв в армию, война во Вьетнаме, первая потеря, поиски себя и своего места в жизни. Вся история Америки проходит перед нами в судьбах этих ребят. И вот кульминация фильма: встреча через 12 лет в Большую Среду. Наши повзрослевшие друзья встречаются вновь, чтобы снова покорить океан.

Sample
Тип релиза: WEB-DL 720p
Контейнер: MKV
Видео: MPEG4 AVC Video, H264, 16:9, 1280x540, 23.976 fps, 4185 kbps
Аудио: Russian (AC3, 2 ch, 192 kbps, 16 bits, 48.0 KHz) - AVO
Аудио 2: English (AC3, 2 ch, 192 kbps, 16 bits, 48.0 KHz) - оригинал
Формат субтитров: softsub (SRT)

MediaInfo

General
Unique ID : 184993896933152063901089448227179150714 (0x8B2C874FEBB86459A90CC6E95B213D7A)
Complete name : K:\Big Wednesday 1978 WEB-DL 720p.mkv
Format : Matroska
Format version : Version 4 / Version 2
File size : 3.90 GiB
Duration : 1h 59mn
Overall bit rate : 4 661 Kbps
Encoded date : UTC 2015-08-24 10:02:48
Writing application : mkvmerge v6.1.0 ('Old Devil') built on Mar 2 2013 14:32:37
Writing library : libebml v1.3.0 + libmatroska v1.4.0
Video
ID : 1
Format : AVC
Format/Info : Advanced Video Codec
Format profile : Main@L3.1
Format settings, CABAC : No
Format settings, ReFrames : 2 frames
Codec ID : V_MPEG4/ISO/AVC
Duration : 1h 59mn
Bit rate : 4 185 Kbps
Width : 1 280 pixels
Height : 540 pixels
Display aspect ratio : 2.40:1
Frame rate mode : Constant
Frame rate : 23.976 fps
Color space : YUV
Chroma subsampling : 4:2:0
Bit depth : 8 bits
Scan type : Progressive
Bits/(Pixel*Frame) : 0.253
Stream size : 3.50 GiB (90%)
Language : English
Default : Yes
Forced : No
Color primaries : BT.709
Transfer characteristics : BT.709
Matrix coefficients : BT.709
Audio #1
ID : 2
Format : AC-3
Format/Info : Audio Coding 3
Mode extension : CM (complete main)
Format settings, Endianness : Big
Codec ID : A_AC3
Duration : 1h 59mn
Bit rate mode : Constant
Bit rate : 192 Kbps
Channel count : 2 channels
Channel positions : Front: L R
Sampling rate : 48.0 KHz
Bit depth : 16 bits
Compression mode : Lossy
Stream size : 164 MiB (4%)
Language : Russian
Default : Yes
Forced : No
Audio #2
ID : 3
Format : AC-3
Format/Info : Audio Coding 3
Mode extension : CM (complete main)
Format settings, Endianness : Big
Codec ID : A_AC3
Duration : 1h 59mn
Bit rate mode : Constant
Bit rate : 192 Kbps
Channel count : 2 channels
Channel positions : Front: L R
Sampling rate : 48.0 KHz
Bit depth : 16 bits
Compression mode : Lossy
Stream size : 164 MiB (4%)
Language : English
Default : No
Forced : No
Text #1
ID : 4
Format : UTF-8
Codec ID : S_TEXT/UTF8
Codec ID/Info : UTF-8 Plain Text
Language : Russian
Default : No
Forced : No
Text #2
ID : 5
Format : UTF-8
Codec ID : S_TEXT/UTF8
Codec ID/Info : UTF-8 Plain Text
Language : English
Default : No
Forced : No

Скриншоты


_________________
Показать сообщения:    

Текущее время: Сегодня 17:45

Часовой пояс: GMT



Вы не можете начинать темы
Вы не можете отвечать на сообщения
Вы не можете редактировать свои сообщения
Вы не можете удалять свои сообщения
Вы не можете голосовать в опросах
Вы не можете прикреплять файлы к сообщениям
Вы не можете скачивать файлы