Важное объявление!
У Нас Все раздачи мультитрекерные, при нуле пиров в релизах, можете смело вставать на закачку!
 
Автор Сообщение

HUNTER

Стаж:
4 года 4 месяца
Сообщений:
56829

Репутация: 101

[+] [-]
Вне форума [Профиль] [ЛС]

Всё или ничего / The Longest Yard
Страна: США
Жанр: комедия, криминал, спорт
Год выпуска: 2005
Продолжительность: 01:53:28
Перевод 1: Профессиональный (дублированный) Невафильм
Перевод 2: Профессиональный (двухголосый закадровый) Tycoon-Studio
Cубтитры: русские, английские
Оригинальная аудиодорожка: английский
Режиссер: Питер Сигал / Peter Segal
В ролях: Адам Сэндлер, Крис Рок, Берт Рейнолдс, Джеймс Кромуэлл, Уильям Фихтнер, Нелли, Майкл Ирвин, Боб Сапп, Николас Туртурро, Терри Крюс...
Описание: Профессиональный футболист, бывший игрок Национальной Футбольной Лиги Пол Кру попадает в тюрьму за вождение автомобиля в нетрезвом состоянии. Начальник тюрьмы Хэйзен, задумавший организовать футбольный матч между охранниками и заключенными, предлагает Полу собрать свою команду. При этом он обещает сократить футболисту срок, если победу одержат охранники. Согласится ли Кру поступиться своими принципами ради скорейшего освобождения или же достойно поборется за победу?
Доп. информация: Дубляж с [url=viewtopic.php?t=178606]DVD[/url], перевод Tycoon-Studio с HDTVRip. Синхронизация звука - Dreven.
Сэмпл: http://sendfile.su/1273986
Тип релиза: WEB-DL 1080p
Контейнер: MKV
Видео: 1920x816 (2.35:1) @ 1918x816, 23.976 fps, AVC, ~9480 Kbps, 0.252 bits/pixel
Аудио 1: Russian, 48.0 KHz, AC3, 6 ch, 448 Kbps - Невафильм
Аудио 2: Russian, 48.0 KHz, AC3, 6 ch, 448 Kbps - Tycoon-Studio
Аудио 3: Ukrainian, 48.0 KHz, AC3, 2 ch, 192 Kbps - Так треба продакшн
Аудио 4: English, 48.0 KHz, AC3+, 6 ch, 640 Kbps
[img]https://rating.kinopoisk.ru/77577.gif[/img]

MediaInfo

General
Unique ID : 175914654929779167492164464162320053635 (0x8457EE1EDF6D38AC88634ED506EE7583)
Complete name : C:\The Longest Yard. WEB-DL 1080p.mkv
Format : Matroska
Format version : Version 4 / Version 2
File size : 9.06 GiB
Duration : 1h 53mn
Overall bit rate mode : Variable
Overall bit rate : 11.4 Mbps
Encoded date : UTC 2016-10-13 15:38:33
Writing application : mkvmerge v9.4.2 ('So High') 64bit
Writing library : libebml v1.3.4 + libmatroska v1.4.5
Video
ID : 1
Format : AVC
Format/Info : Advanced Video Codec
Format profile : High@L4
Format settings, CABAC : Yes
Format settings, ReFrames : 4 frames
Codec ID : V_MPEG4/ISO/AVC
Duration : 1h 53mn
Bit rate mode : Variable
Bit rate : 9 704 Kbps
Maximum bit rate : 15.0 Mbps
Width : 1 920 pixels
Height : 816 pixels
Display aspect ratio : 2.35:1
Frame rate mode : Constant
Frame rate : 23.976 (24000/1001) fps
Color space : YUV
Chroma subsampling : 4:2:0
Bit depth : 8 bits
Scan type : Progressive
Bits/(Pixel*Frame) : 0.258
Stream size : 7.69 GiB (85%)
Writing library : x264 core 148 r2623 d5b2374
Encoding settings : cabac=1 / ref=4 / deblock=1:-1:-1 / analyse=0x3:0x133 / me=umh / subme=9 / psy=1 / psy_rd=1.00:0.15 / mixed_ref=1 / me_range=24 / chroma_me=1 / trellis=2 / 8x8dct=1 / cqm=0 / deadzone=21,11 / fast_pskip=1 / chroma_qp_offset=-3 / threads=25 / lookahead_threads=4 / sliced_threads=0 / nr=150 / decimate=1 / interlaced=0 / bluray_compat=0 / constrained_intra=0 / bframes=8 / b_pyramid=2 / b_adapt=2 / b_bias=0 / direct=3 / weightb=1 / open_gop=0 / weightp=2 / keyint=120 / keyint_min=61 / scenecut=0 / intra_refresh=0 / rc_lookahead=120 / rc=crf / mbtree=1 / crf=18.0 / qcomp=0.60 / qpmin=0 / qpmax=69 / qpstep=4 / vbv_maxrate=15000 / vbv_bufsize=31250 / crf_max=0.0 / nal_hrd=vbr / filler=0 / ip_ratio=1.40 / aq=3:1.00
Language : English
Default : Yes
Forced : No
Color range : Limited
Color primaries : BT.709
Transfer characteristics : BT.709
Matrix coefficients : BT.709
Audio #1
ID : 2
Format : AC-3
Format/Info : Audio Coding 3
Mode extension : CM (complete main)
Format settings, Endianness : Big
Codec ID : A_AC3
Duration : 1h 53mn
Bit rate mode : Constant
Bit rate : 448 Kbps
Channel(s) : 6 channels
Channel positions : Front: L C R, Side: L R, LFE
Sampling rate : 48.0 KHz
Frame rate : 31.250 fps (1536 spf)
Compression mode : Lossy
Stream size : 364 MiB (4%)
Title : Невафильм
Language : Russian
Default : Yes
Forced : No
Audio #2
ID : 3
Format : AC-3
Format/Info : Audio Coding 3
Mode extension : CM (complete main)
Format settings, Endianness : Big
Codec ID : A_AC3
Duration : 1h 53mn
Bit rate mode : Constant
Bit rate : 448 Kbps
Channel(s) : 6 channels
Channel positions : Front: L C R, Side: L R, LFE
Sampling rate : 48.0 KHz
Frame rate : 31.250 fps (1536 spf)
Compression mode : Lossy
Stream size : 364 MiB (4%)
Title : Tycoon-Studio
Language : Russian
Default : No
Forced : No
Audio #3
ID : 4
Format : AC-3
Format/Info : Audio Coding 3
Mode extension : CM (complete main)
Format settings, Endianness : Big
Codec ID : A_AC3
Duration : 1h 53mn
Bit rate mode : Constant
Bit rate : 192 Kbps
Channel(s) : 2 channels
Channel positions : Front: L R
Sampling rate : 48.0 KHz
Frame rate : 31.250 fps (1536 spf)
Compression mode : Lossy
Stream size : 156 MiB (2%)
Title : Так треба продакшн
Language : Ukrainian
Default : No
Forced : No
Audio #4
ID : 5
Format : E-AC-3
Format/Info : Audio Coding 3
Format settings, Endianness : Big
Codec ID : A_EAC3
Duration : 1h 53mn
Bit rate mode : Constant
Bit rate : 640 Kbps
Channel(s) : 6 channels
Channel positions : Front: L C R, Side: L R, LFE
Sampling rate : 48.0 KHz
Frame rate : 187.500 fps (256 spf)
Compression mode : Lossy
Stream size : 519 MiB (6%)
Language : English
Default : No
Forced : No
Text #1
ID : 6
Format : UTF-8
Codec ID : S_TEXT/UTF8
Codec ID/Info : UTF-8 Plain Text
Duration : 1h 45mn
Bit rate : 107 bps
Count of elements : 1262
Stream size : 82.6 KiB (0%)
Language : Russian
Default : No
Forced : No
Text #2
ID : 7
Format : UTF-8
Codec ID : S_TEXT/UTF8
Codec ID/Info : UTF-8 Plain Text
Duration : 1h 50mn
Bit rate : 84 bps
Count of elements : 2497
Stream size : 68.4 KiB (0%)
Language : English
Default : No
Forced : No

Скриншоты


_________________
Показать сообщения:    

Текущее время: Сегодня 13:46

Часовой пояс: GMT



Вы не можете начинать темы
Вы не можете отвечать на сообщения
Вы не можете редактировать свои сообщения
Вы не можете удалять свои сообщения
Вы не можете голосовать в опросах
Вы не можете прикреплять файлы к сообщениям
Вы не можете скачивать файлы