Важное объявление!
У Нас Все раздачи мультитрекерные, при нуле пиров в релизах, можете смело вставать на закачку!
 
Автор Сообщение

HUNTER

Стаж:
4 года 4 месяца
Сообщений:
56783

Репутация: 101

[+] [-]
Вне форума [Профиль] [ЛС]

Время приключений / Adventure Time-Год выпуска: 2010-2011
Страна: США
Жанр: Комедия , Приключения
Продолжительность: ~00:21:00
Кол-во эпизодов: 1 - 52 из 52
Перевод: Профессиональный (дублированный)
Субтитры: Отсутствуют
-Режиссёр: Пендлтон Ворд / Pendleton Ward-Описание: Время Приключений - американский анимационный сериал, созданный Пендлтоном Вордом. Сериал повествует о необыкновенных и весёлых приключениях двух лучших друзей: мальчика Финна и его собаки Джейка. Действие сериала происходит в волшебной стране Ууу. Финн - 13-летний мальчик, который обожает путешествовать и спасать принцесс из лап ужасных монстров и злодеев, населяющих Землю Ууу. Джейк - лучший друг Финна. Это волшебная собака со способностью растягивать своё тело до практически любых размеров и форм. Джейку 28 лет и он исполняет роль эдакого приятеля-наставника Финна, а его волшебные способности помогают мальчику в его борьбе со злом.-Качество: DVB
Формат: MPG
Видео: MPEG2 Video, 720x576 (4:3), ~1 936 Kbps, 25.00fps
Аудио: Русская дорожка - MPEG Audio, 48KHz, 2ch , 192kbps
-

Эпизоды

1 Сезон
Season 1, Episode 1: Slumber Party Panic / Trouble in Lumpy Space
Season 1, Episode 2: Prisoners of Love / Tree Trunks
Season 1, Episode 3: The Enchiridion! / The Jiggler
Season 1, Episode 4: Ricardio the Heart Guy / Business Time
Season 1, Episode 5: My Two Favorite People / Memories of Boom Boom Mountain
Season 1, Episode 6: Wizard / Evicted!
Season 1, Episode 7: City of Thieves / The Witch's Garden
Season 1, Episode 8: What is Life? / Ocean of Fear
Season 1, Episode 9: Wedding Bells Thaw / Freak City
Season 1, Episode 10: The Duke / Donny
Season 1, Episode 11: Henchman / Dungeon
Season 1, Episode 12: What Have You Done? / Rainy Day Daydream
Season 1, Episode 13: Gut Grinder / His Heroe Witch's Garden
2 Сезон
Season 2, Episode 1: It Came from the Nightosphere / The Eyes
Season 2, Episode 2: Loyalty to the King / Blood Under the Skin
Season 2, Episode 3: Storytelling / Slow Love
Season 2, Episode 4: Power Animal / Crystals Have Power
Season 2, Episode 5: The Other Tarts / To Cut a Woman's Hair
Season 2, Episode 6: The Chamber of Frozen Blades / Her Parents
Season 2, Episode 7: The Pods / The Silent King
Season 2, Episode 8: The Real You / Guardians of Sunshine
Season 2, Episode 9: Death in Bloom / Susan Strong
Season 2, Episode 10: Mystery Train / Go With Me
Season 2, Episode 11: Belly of the Beast / The Limit
Season 2, Episode 12: Video Makers / Heat Signature
Season 2, Episode 13: Mortal Recoil
3 Сезон
Season 3, Episode 1: Conquest of Cuteness - Morituri Te Salutamus
Season 3, Episode 2: Too Young - Thank You
Season 3, Episode 3: Fionna and Cake - The Monster
Season 3, Episode 4: Still - Wizard Battle
Season 3, Episode 5: Beautopia - From Bad to Worse
Season 3, Episode 6: What Was Missing - Apple Thief
Season 3, Episode 7: Memory of a Memory - Hitman
Season 3, Episode 8: No One Can Hear You - The Creeps
Season 3, Episode 9: Jake vs. Me-Mow - The New Frontier
Season 3, Episode 10: Holly Jolly Secrets (Part I) - Holly Jolly Secrets (Part II)
Season 3, Episode 11: Marceline's Closet - Incendium
Season 3, Episode 12: Another Way - Paper Pete
Season 3, Episode 13: Ghost Princess - Dad's Dungeon
4 Сезон
S 04 ep 01 Five Short Graybles - Dream of Love
S 04 ep 02 Web Weirdos - Hot to the Touch (Part 2)
S 04 ep 03 Return to the Nightosphere - Daddy's Little Monster (Part 2)
S 04 ep 04 In Your Footsteps - Hug Wolf
S 04 ep 05 Princess Monster Wife - Goliad
S 04 ep 06 Beyond This Earthly Realm - Gotcha!
S 04 ep 07 Princess Cookie - Card Wars
S 04 ep 08 Sons of Mars - Burning Low
S 04 ep 09 BMO Noire - King Worm
S 04 ep 10 Who Would Win - Lady & Peebles
S 04 ep 11 You Made Me! - The Hard Easy
S 04 ep 12 Ignition Point - Reign of Gunters
S 04 ep 13 I Remember You - The Lich
-

MediaInfo

General
General
Complete name : F:\Downloads\Время приключений\Season 2\S 02 ep 01 It Came from the Nightosphere - The Eyes.mpg
Format : MPEG-PS
File size : 324 MiB
Duration : 21mn 43s
Overall bit rate mode : Variable
Overall bit rate : 2 086 Kbps
Video
ID : 224 (0xE0)
Format : MPEG Video
Format version : Version 2
Format profile : Main@Main
Format settings, BVOP : No
Format settings, Matrix : Custom
Format settings, GOP : Variable
Duration : 21mn 42s
Bit rate mode : Variable
Bit rate : 1 852 Kbps
Maximum bit rate : 15.0 Mbps
Width : 720 pixels
Height : 576 pixels
Display aspect ratio : 4:3
Frame rate : 25.000 fps
Standard : PAL
Color space : YUV
Chroma subsampling : 4:2:0
Bit depth : 8 bits
Scan type : Interlaced
Scan order : Top Field First
Compression mode : Lossy
Bits/(Pixel*Frame) : 0.179
Time code of first frame : 14:39:15:08
Time code source : Group of pictures header
Stream size : 288 MiB (89%)
Audio
ID : 192 (0xC0)
Format : MPEG Audio
Format version : Version 1
Format profile : Layer 2
Duration : 21mn 43s
Bit rate mode : Constant
Bit rate : 192 Kbps
Channel count : 2 channels
Sampling rate : 48.0 KHz
Compression mode : Lossy
Delay relative to video : -14ms
Stream size : 29.8 MiB (9%)
-

Скриншоты


_________________
Показать сообщения:    

Текущее время: Сегодня 21:20

Часовой пояс: GMT



Вы не можете начинать темы
Вы не можете отвечать на сообщения
Вы не можете редактировать свои сообщения
Вы не можете удалять свои сообщения
Вы не можете голосовать в опросах
Вы не можете прикреплять файлы к сообщениям
Вы не можете скачивать файлы