Важное объявление!
У Нас Все раздачи мультитрекерные, при нуле пиров в релизах, можете смело вставать на закачку!
 
Автор Сообщение

HUNTER

Стаж:
4 года 4 месяца
Сообщений:
56749

Репутация: 101

[+] [-]
Вне форума [Профиль] [ЛС]

Время бешеных псов / Mad Dog Time
Страна: США
Жанр: Комедия, Драма, Криминал
Год выпуска: 1996
Продолжительность: 01:32:53
Перевод 1: Профессиональный (многоголосый закадровый) Неоклассика
Перевод 2: Профессиональный (многоголосый закадровый) СТС
Перевод 3: Авторский (одноголосый закадровый) А. Гаврилов
Перевод 4: Одноголосый закадровый М. Яроцкий
Cубтитры: Русские, Английские
Оригинальная аудиодорожка: Английский
Режиссер: Ларри Бишоп / Larry Bishop
В ролях: Джефф Голдблюм, Гэбриэл Бирн, Эллен Баркин, Берт Рейнолдс, Дайэн Лэйн, Грегори Хайнс, Ричард Прайор, Билли Драго, Пол Анка, Майкл Джей Поллард, Хенри Сильва, Хуан Фернандес, Реал Эндрюс, Роб Райнер, Ричард Дрейфусс, Кайл МакЛаклэн, Энджи Эверхарт, Билли Айдл, Ларри Бишоп, Джои Бишоп, Джон Инграссиа, Кристофер Джоунс
Описание: Владелец роскошного ресторана Вик на самом деле является главарем преступного мира по прозвищу «Бешеный пес». В соперничестве с другим крупным мафиози Мики Холлидеем он пытается установить полный контроль в клубном и игорном бизнесе. Для достижения этой цели используются все средства: от «девушек на ночь» до «русской рулетки».-Рейтинг
-Рип от IDE!
Сэмпл
Тип релиза: BDRip 720p
Контейнер: MKV
Видео: 1280х692 (1,85:1), 23,976 fps, x264 ~6067 Kbps
Аудио 1: Russian: Dolby Digital Audio 48 kHz / 5.1ch / 384 kbps | Многоголосый закадровый, Неоклассика
Аудио 2: Russian: Dolby Digital Audio 48 kHz / 2.0ch / 192 kbps | Многоголосый закадровый, СТС
Аудио 3: Russian: Dolby Digital Audio 48 kHz / 2.0ch / 192 kbps | Одноголосый закадровый, А. Гаврилов
Аудио 4: Russian: DTS / 48Hz / 2ch / 1509 kbps | Одноголосый закадровый, М. Яроцкий
Аудио 5: English: DTS / 48Hz / 2ch / 1509 kbps | Оригинал
Субтитры №1: Russian (Неоклассика)
Субтитры №2: English
Формат субтитров: softsub (SRT)

Дополнительно

Перевод М. Яроцкого доступен благодаря x3mz.
Заказ дорожки timur. Работа со звуком Переводман.
Произведена подгонка и редактирование русских субтитров.

MediaInfo


Общее
Unique ID : 199540746690239626867380365863795092812 (0x961E26610028F1B4AAE9F6304E1CED4C)
Complete name : N:\video_rutracker\Mad.Dog.Time.1996.720p.BDRip.4xRus.Eng.Sub.mkv
Format : Matroska
Format version : Version 2
File size : 6,47 Гбайт
Duration : 1 ч. 32 м.
Overall bit rate : 9978 Кбит/сек
Encoded date : UTC 2015-12-12 20:02:21
Writing application : mkvmerge v8.3.0 ('Over the Horizon') 64bit
Writing library : libebml v1.3.1 + libmatroska v1.4.2
Attachements : cover.jpg
Видео
ID : 1
Format : AVC
Format/Info : Advanced Video Codec
Format profile : High@L4.1
Format settings, CABAC : Да
Format settings, ReFrames : 9 кадров
Codec ID : V_MPEG4/ISO/AVC
Duration : 1 ч. 32 м.
Bit rate : 5994 Кбит/сек
Width : 1280 пикселей
Height : 692 пикселя
Display aspect ratio : 1,85:1
Frame rate mode : Постоянный
Frame rate : 23,976 (24000/1001) кадра/сек
Color space : YUV
Chroma subsampling : 4:2:0
Bit depth : 8 бит
Scan type : Прогрессивная
Bits/(Pixel*Frame) : 0.282
Stream size : 3,89 Гбайт (60%)
Title : Mad.Dog.Time.1996 Encode by IDE
Writing library : x264 core 148 r2638+53 bb29004 t_mod_Custom [8-bit@all X86_64]
Encoding settings : cabac=1 / ref=9 / deblock=1:-3:-3 / analyse=0x3:0x133 / me=umh / subme=10 / psy=1 / fade_compensate=0.00 / psy_rd=1.00:0.00 / mixed_ref=1 / me_range=48 / chroma_me=1 / trellis=2 / 8x8dct=1 / cqm=0 / deadzone=21,11 / fast_pskip=1 / chroma_qp_offset=-2 / threads=8 / lookahead_threads=2 / sliced_threads=0 / nr=0 / decimate=1 / interlaced=0 / bluray_compat=0 / constrained_intra=0 / fgo=0 / bframes=10 / b_pyramid=2 / b_adapt=2 / b_bias=0 / direct=3 / weightb=1 / open_gop=0 / weightp=2 / keyint=250 / keyint_min=23 / scenecut=40 / intra_refresh=0 / rc_lookahead=150 / rc=crf / mbtree=0 / crf=16.6000 / qcomp=0.60 / qpmin=0:0:0 / qpmax=69:69:69 / qpstep=4 / vbv_maxrate=50000 / vbv_bufsize=62500 / crf_max=0.0 / nal_hrd=none / filler=0 / ip_ratio=1.35 / pb_ratio=1.25 / aq=1:0.70 / aq-sensitivity=10.00 / aq-factor=1.00:1.00:1.00 / aq2=0 / aq3=0
Language : English
Default : Да
Forced : Нет
Аудио #1
ID : 2
Format : AC-3
Format/Info : Audio Coding 3
Mode extension : CM (complete main)
Format settings, Endianness : Big
Codec ID : A_AC3
Duration : 1 ч. 32 м.
Bit rate mode : Постоянный
Bit rate : 384 Кбит/сек
Channel(s) : 6 каналов
Channel positions : Front: L C R, Side: L R, LFE
Sampling rate : 48,0 КГц
Frame rate : 31,250 кадров/сек (1536 spf)
Compression mode : С потерями
Stream size : 255 Мбайт (4%)
Title : Многоголосый закадровый, «Неоклассика»
Language : Russian
Default : Да
Forced : Нет
Аудио #2
ID : 3
Format : AC-3
Format/Info : Audio Coding 3
Mode extension : CM (complete main)
Format settings, Endianness : Big
Codec ID : A_AC3
Duration : 1 ч. 32 м.
Bit rate mode : Постоянный
Bit rate : 192 Кбит/сек
Channel(s) : 2 канала
Channel positions : Front: L R
Sampling rate : 48,0 КГц
Frame rate : 31,250 кадров/сек (1536 spf)
Compression mode : С потерями
Stream size : 128 Мбайт (2%)
Title : Многоголосый закадровый, «CTC»
Language : Russian
Default : Нет
Forced : Нет
Аудио #3
ID : 4
Format : AC-3
Format/Info : Audio Coding 3
Mode extension : CM (complete main)
Format settings, Endianness : Big
Codec ID : A_AC3
Duration : 1 ч. 32 м.
Bit rate mode : Постоянный
Bit rate : 192 Кбит/сек
Channel(s) : 2 канала
Channel positions : Front: L R
Sampling rate : 48,0 КГц
Frame rate : 31,250 кадров/сек (1536 spf)
Compression mode : С потерями
Stream size : 128 Мбайт (2%)
Title : Одноголосый закадровый, А. Гаврилов
Language : Russian
Default : Нет
Forced : Нет
Аудио #4
ID : 5
Format : DTS
Format/Info : Digital Theater Systems
Mode : 16
Format settings, Endianness : Big
Codec ID : A_DTS
Duration : 1 ч. 32 м.
Bit rate mode : Постоянный
Bit rate : 1509 Кбит/сек
Channel(s) : 2 канала
Channel positions : Front: L R
Sampling rate : 48,0 КГц
Frame rate : 93,750 кадра/сек (512 spf)
Bit depth : 24 бит
Compression mode : С потерями
Stream size : 1003 Мбайт (15%)
Title : Одноголосый закадровый, М. Яроцкий
Language : Russian
Default : Нет
Forced : Нет
Аудио #5
ID : 6
Format : DTS
Format/Info : Digital Theater Systems
Mode : 16
Format settings, Endianness : Big
Codec ID : A_DTS
Duration : 1 ч. 32 м.
Bit rate mode : Постоянный
Bit rate : 1509 Кбит/сек
Channel(s) : 2 канала
Channel positions : Front: L R
Sampling rate : 48,0 КГц
Frame rate : 93,750 кадра/сек (512 spf)
Bit depth : 24 бит
Compression mode : С потерями
Stream size : 1003 Мбайт (15%)
Title : Original
Language : English
Default : Нет
Forced : Нет
Текст #1
ID : 7
Format : UTF-8
Codec ID : S_TEXT/UTF8
Codec ID/Info : UTF-8 Plain Text
Title : Full
Language : Russian
Default : Нет
Forced : Нет
Текст #2
ID : 8
Format : UTF-8
Codec ID : S_TEXT/UTF8
Codec ID/Info : UTF-8 Plain Text
Title : Full
Language : English
Default : Нет
Forced : Нет
Меню
00:00:00.000 : en:Chapter 1
00:00:10.927 : en:Chapter 2
00:10:46.645 : en:Chapter 3
00:22:00.110 : en:Chapter 4
00:34:35.114 : en:Chapter 5
00:46:55.437 : en:Chapter 6
00:59:44.247 : en:Chapter 7
01:09:06.433 : en:Chapter 8
01:18:49.099 : en:Chapter 9
01:33:04.537 : en:Chapter 10

Скриншоты



_________________
Показать сообщения:    

Текущее время: Сегодня 01:30

Часовой пояс: GMT



Вы не можете начинать темы
Вы не можете отвечать на сообщения
Вы не можете редактировать свои сообщения
Вы не можете удалять свои сообщения
Вы не можете голосовать в опросах
Вы не можете прикреплять файлы к сообщениям
Вы не можете скачивать файлы