Важное объявление!
У Нас Все раздачи мультитрекерные, при нуле пиров в релизах, можете смело вставать на закачку!
 
Автор Сообщение

HUNTER

Стаж:
4 года 4 месяца
Сообщений:
56733

Репутация: 101

[+] [-]
Вне форума [Профиль] [ЛС]

Время / In Time
Страна: США
Студия: New Regency Pictures, Regency Enterprises, Strike Entertainment
Жанр: фантастика, триллер, драма, мелодрама, криминал
Год выпуска: 2011
Продолжительность: 01:49:16
Перевод 1: Профессиональный (дублированный) Blu-Ray CEE
Перевод 2: Авторский (одноголосый закадровый) Ю.Сербин
Перевод 3: Авторский (одноголосый закадровый) А.Гаврилов
Cубтитры: русские (forced, full), украинские (forced, full), английские(full, SDH)
Оригинальная аудиодорожка: английский
Режиссер: Эндрю Никкол / Andrew Niccol
В ролях: Джастин Тимберлэйк, Аманда Сайфред, Алекс Петтифер, Киллиан Мёрфи, Оливия Уайлд, Шайло Оствальд, Джонни Галэки, Колин МакГерк, Уилл Харрис, Майкл Уильям Фриман
Описание: Добро пожаловать в мир, где время стало единственной и самой твердой валютой, где люди генетически запрограммированы так, что в 25 лет перестают стареть. Правда, последующие годы стоят денег. И вот богатые становятся практически бессмертными, а бедные, как всегда, обречены сражаться за жизнь.
Уилл, бунтарь из гетто, несправедливо обвинен в убийстве с целью грабежа времени и вынужден, захватив заложницу, пуститься в бега. Так, ежеминутно рискуя жизнью, эти двое становятся грозным оружием в борьбе с системой. Но вот вопрос: кто кого? А может быть, в дело вмешается третья сила?..


Тип релиза: BDRip 1080p[DON]
Контейнер: MKV
Видео: AVC,1920x816, 11500 kbps, 23.976 fps
Аудио 1: Russian: 48 kHz/24-bit, DTS, 3/2 (L,C,R,l,r) + LFE ch, ~768.00 kbps avg |Blu-Ray CEE|
Аудио 2: Ukrainian: 48 kHz, AC3, 3/2 (L,C,R,l,r) + LFE ch, ~448.00 kbps avg |Blu-Ray CEE|
Аудио 3: Russian: 48 kHz, DTS, 3/2 (L,C,R,l,r) + LFE ch, ~1536.00 kbps avg |Сербин|
Аудио 4: Russian: 48 kHz, DTS, 3/2 (L,C,R,l,r) + LFE ch, ~1536.00 kbps avg |Гаврилов|
Аудио 5: English: 48 kHz, DTS, 3/2 (L,C,R,l,r) + LFE ch, ~1536.00 kbps |Original|
Чаптеры:есть

x264 log

x264 [info]: frame I:1723 Avg QP:13.59 size:208809
x264 [info]: frame P:33864 Avg QP:14.44 size:105646
x264 [info]: frame B:121619 Avg QP:16.24 size: 47118

MediaInfo

General
Unique ID : 184154598604219596278075661165027637567 (0x8A8AE2B5B0474D08BE427CE16EDBB93F)
Complete name : D:\In.Time.2011.1080p.BluRay.x264-Talian-.mkv
Format : Matroska
Format version : Version 2
File size : 13.4 GiB
Duration : 1h 49mn
Overall bit rate : 17.5 Mbps
Movie name : -Talian-
Encoded date : UTC 2014-07-03 15:42:03
Writing application : mkvmerge v5.7.0 ('The Whirlwind') built on Jul 8 2012 20:08:51
Writing library : libebml v1.2.3 + libmatroska v1.3.0
Video
ID : 1
Format : AVC
Format/Info : Advanced Video Codec
Format profile : High@L4.1
Format settings, CABAC : Yes
Format settings, ReFrames : 5 frames
Codec ID : V_MPEG4/ISO/AVC
Duration : 1h 49mn
Bit rate : 11.5 Mbps
Width : 1 920 pixels
Height : 816 pixels
Display aspect ratio : 2.35:1
Frame rate : 23.976 fps
Color space : YUV
Chroma subsampling : 4:2:0
Bit depth : 8 bits
Scan type : Progressive
Bits/(Pixel*Frame) : 0.305
Stream size : 8.75 GiB (65%)
Title : DON
Writing library : x264 core 120 r2120 0c7dab9
Encoding settings : cabac=1 / ref=5 / deblock=1:-3:-3 / analyse=0x3:0x133 / me=tesa / subme=10 / psy=1 / psy_rd=0.90:0.05 / mixed_ref=1 / me_range=24 / chroma_me=1 / trellis=2 / 8x8dct=1 / cqm=0 / deadzone=21,11 / fast_pskip=0 / chroma_qp_offset=-3 / threads=12 / sliced_threads=0 / nr=0 / decimate=0 / interlaced=0 / bluray_compat=0 / constrained_intra=0 / bframes=7 / b_pyramid=2 / b_adapt=2 / b_bias=0 / direct=3 / weightb=1 / open_gop=0 / weightp=2 / keyint=250 / keyint_min=23 / scenecut=40 / intra_refresh=0 / rc=crf / mbtree=0 / crf=16.5 / qcomp=0.60 / qpmin=0 / qpmax=69 / qpstep=4 / ip_ratio=1.40 / pb_ratio=1.30 / aq=1:0.85
Language : English
Default : Yes
Forced : No
Audio #1
ID : 2
Format : DTS
Format/Info : Digital Theater Systems
Codec ID : A_DTS
Duration : 1h 49mn
Bit rate mode : Constant
Bit rate : 755 Kbps
Channel(s) : 6 channels
Channel positions : Front: L C R, Side: L R, LFE
Sampling rate : 48.0 KHz
Bit depth : 24 bits
Compression mode : Lossy
Stream size : 590 MiB (4%)
Title : DUB-Blu-Ray CEE
Language : Russian
Default : Yes
Forced : No
Audio #2
ID : 3
Format : AC-3
Format/Info : Audio Coding 3
Mode extension : CM (complete main)
Format settings, Endianness : Big
Codec ID : A_AC3
Duration : 1h 49mn
Bit rate mode : Constant
Bit rate : 448 Kbps
Channel(s) : 6 channels
Channel positions : Front: L C R, Side: L R, LFE
Sampling rate : 48.0 KHz
Bit depth : 16 bits
Compression mode : Lossy
Stream size : 350 MiB (3%)
Title : Dub-Blu-Ray CEE
Language : Ukrainian
Default : No
Forced : No
Audio #3
ID : 4
Format : DTS
Format/Info : Digital Theater Systems
Codec ID : A_DTS
Duration : 1h 49mn
Bit rate mode : Constant
Bit rate : 1 510 Kbps
Channel(s) : 6 channels
Channel positions : Front: L C R, Side: L R, LFE
Sampling rate : 48.0 KHz
Bit depth : 24 bits
Compression mode : Lossy
Stream size : 1.15 GiB (9%)
Title : AVO-Ю.Сербин
Language : Russian
Default : No
Forced : No
Audio #4
ID : 5
Format : DTS
Format/Info : Digital Theater Systems
Codec ID : A_DTS
Duration : 1h 49mn
Bit rate mode : Constant
Bit rate : 1 510 Kbps
Channel(s) : 6 channels
Channel positions : Front: L C R, Side: L R, LFE
Sampling rate : 48.0 KHz
Bit depth : 24 bits
Compression mode : Lossy
Stream size : 1.15 GiB (9%)
Title : AVO-А.Гаврилов
Language : Russian
Default : No
Forced : No
Audio #5
ID : 6
Format : DTS
Format/Info : Digital Theater Systems
Codec ID : A_DTS
Duration : 1h 49mn
Bit rate mode : Constant
Bit rate : 1 510 Kbps
Channel(s) : 6 channels
Channel positions : Front: L C R, Side: L R, LFE
Sampling rate : 48.0 KHz
Bit depth : 24 bits
Compression mode : Lossy
Stream size : 1.15 GiB (9%)
Title : Original
Language : English
Default : No
Forced : No
Text #1
ID : 7
Format : UTF-8
Codec ID : S_TEXT/UTF8
Codec ID/Info : UTF-8 Plain Text
Title : Sub-forced
Language : Russian
Default : Yes
Forced : No
Text #2
ID : 8
Format : UTF-8
Codec ID : S_TEXT/UTF8
Codec ID/Info : UTF-8 Plain Text
Title : Sub
Language : Russian
Default : No
Forced : No
Text #3
ID : 9
Format : UTF-8
Codec ID : S_TEXT/UTF8
Codec ID/Info : UTF-8 Plain Text
Title : Sub-forced
Language : Ukrainian
Default : No
Forced : No
Text #4
ID : 10
Format : UTF-8
Codec ID : S_TEXT/UTF8
Codec ID/Info : UTF-8 Plain Text
Title : Sub
Language : Ukrainian
Default : No
Forced : No
Text #5
ID : 11
Format : UTF-8
Codec ID : S_TEXT/UTF8
Codec ID/Info : UTF-8 Plain Text
Title : Sub-full
Language : English
Default : No
Forced : No
Text #6
ID : 12
Format : UTF-8
Codec ID : S_TEXT/UTF8
Codec ID/Info : UTF-8 Plain Text
Title : Sub-SDH
Language : English
Default : No
Forced : No
Menu
00:00:00.000 : en:00:00:00.000
00:05:54.271 : en:00:05:54.271
00:10:50.733 : en:00:10:50.733
00:18:58.095 : en:00:18:58.095
00:22:16.377 : en:00:22:16.377
00:25:30.446 : en:00:25:30.446
00:29:51.915 : en:00:29:51.915
00:34:41.746 : en:00:34:41.746
00:38:24.886 : en:00:38:24.886
00:41:23.898 : en:00:41:23.898
00:44:44.724 : en:00:44:44.724
00:48:08.302 : en:00:48:08.302
00:51:32.548 : en:00:51:32.548
00:53:56.150 : en:00:53:56.150
00:56:16.873 : en:00:56:16.873
01:00:25.372 : en:01:00:25.372
01:05:41.146 : en:01:05:41.146
01:08:57.800 : en:01:08:57.800
01:11:19.484 : en:01:11:19.484
01:14:05.107 : en:01:14:05.107
01:16:48.979 : en:01:16:48.979
01:20:20.983 : en:01:20:20.983
01:22:44.293 : en:01:22:44.293
01:27:17.107 : en:01:27:17.107
01:29:22.399 : en:01:29:22.399
01:33:26.017 : en:01:33:26.017
01:37:16.956 : en:01:37:16.956
01:42:56.462 : en:01:42:56.462

Скриншоты

Source VS DON VS HDChina



_________________
Показать сообщения:    

Текущее время: Сегодня 20:34

Часовой пояс: GMT



Вы не можете начинать темы
Вы не можете отвечать на сообщения
Вы не можете редактировать свои сообщения
Вы не можете удалять свои сообщения
Вы не можете голосовать в опросах
Вы не можете прикреплять файлы к сообщениям
Вы не можете скачивать файлы