Важное объявление!
У Нас Все раздачи мультитрекерные, при нуле пиров в релизах, можете смело вставать на закачку!
 
Автор Сообщение

HUNTER

Стаж:
4 года 4 месяца
Сообщений:
56755

Репутация: 101

[+] [-]
Вне форума [Профиль] [ЛС]

Враг / Enemy
Страна: Канада, Испания
Жанр: триллер, детектив
Год выпуска: 2013
Продолжительность: 01:30:52
Перевод 1: Авторский (одноголосый закадровый) Ю. Немахов
Перевод 2: Одноголосый закадровый А. Матвеев
Перевод 3: Одноголосый закадровый Д. Есарев
Cубтитры: Russian, English, English (SDH)
Оригинальная аудиодорожка: английский
Режиссер: Дени Вильнёв / Denis Villeneuve
В ролях: Джейк Джилленхол, Мелани Лоран, Сара Гадон, Изабелла Росселлини, Джошуа Пиис, Тим Пост, Кедар Браун, Дэррил Динн, Миша Хайстэд, Меган Манн
Описание: Взяв наугад кассету с фильмом в видеопрокате, парень с удивлением замечает в одном из эпизодов актёра, который является почти точной его копией, разве что на пару лет моложе. Вскоре желание найти своего двойника превращается для парня в настоящую навязчивую идею. Длительные бесплодные поиски, в конце концов, становятся причиной странных мистических событий, постепенно погружающих парня в пучину наваждения...
Сэмпл
Тип релиза: BDRip 720p
Контейнер: MKV
Видео: MPEG-4 AVC, 1280x534 at 23.976 fps, x264, ~6253 kbps avg
Аудио 1: Russian: 48 kHz, DTS, 3/2 (L,C,R,l,r) + LFE ch, ~1536.00 kbps avg |Авторский, Ю. Немахов|
Аудио 2: Russian: 48 kHz, DTS, 3/2 (L,C,R,l,r) + LFE ch, ~1536.00 kbps avg |Авторский, А. Матвеев|
Аудио 3: Russian: 48 kHz, DTS, 3/2 (L,C,R,l,r) + LFE ch, ~1536.00 kbps avg |Авторский, Д. Есарев|
Аудио 4: English: 48 kHz, AC3, 3/2 (L,C,R,l,r) + LFE ch, ~640.00 kbps avg
Внимание: В субтитрах присутствует ненормативная лексика

Знаете ли Вы, что...

Экранизация романа Жозе Сарамаго «Двойник» (O Homem Duplicado, 2002).
Весь актерский состав подписал соглашение о конфиденциальности, которое запрещало им говорить или объяснять прессе о смысле пауков в фильме.
По словам режиссера Дени Вильнёва, главную роль предлагали Хавьеру Бардему, но актер посчитал, что он не подходит для такой роли. Также главную роль предлагали Кристиану Бэйлу, но тот был вынужден отказаться из-за несогласованности рабочих графиков с другими его проектами.
На пятой минуте фильма, во время лекции, профессор Белл стоит перед доской, на которой написаны концепции и имена философов. Имя немецкого философа Фихте (Fichte) написано с ошибкой - «Fitche».
Когда Энтони звонит Адаму, они договариваются встретиться в воскресенье, в часе езды от города. В кадрах воздушных съемок, когда Адам едет к месту встречи, на фоне виден щит, на котором отображается актуальная дата (13-е июля 2012 года). В эту дату была пятница, а не воскресенье.
Актеры используют поисковик Google, чтобы найти информацию друг о друге. Можно заметить, что в поисковике используется система интеллектуального поиска, которой еще не было в то время, когда происходят события фильма.
В сцене в квартире показывают, как Хеллен надевает только темный топ, но в следующих кадрах можно заметить лямки бюстгальтера под ним.

MediaInfo

Общее
Уникальный идентификатор : 235335436122722384876447494763227390136 (0xB10BF4D2B9C36B21A2DD159E1D3420B8)
Полное имя : I:\Enemy.2013.720p.BluRay.3xRus.Eng.HDCLUB.mkv
Формат : Matroska
Версия формата : Version 2
Размер файла : 7,34 Гбайт
Продолжительность : 1 ч. 30 м.
Общий поток : 11,6 Мбит/сек
Название фильма : Enemy.2013.720p.BluRay.3xRus.Eng.HDCLUB
Дата кодирования : UTC 2014-07-02 08:36:09
Программа кодирования : mkvmerge v5.2.1 ('A Far Off Place') built on Jan 2 2012 23:21:10
Библиотека кодирования : libebml v1.2.3 + libmatroska v1.3.0
DURATION : 01:25:30.364000000
NUMBER_OF_FRAMES : 570
NUMBER_OF_BYTES : 16366
_STATISTICS_WRITING_APP : mkvmerge v7.0.0 ('Where We Going') 64bit built on Jun 9 2014 15:16:27
_STATISTICS_WRITING_DATE_UTC : 2014-06-14 05:41:48
_STATISTICS_TAGS : BPS DURATION NUMBER_OF_FRAMES NUMBER_OF_BYTES
Видео
Идентификатор : 1
Формат : AVC
Формат/Информация : Advanced Video Codec
Профиль формата : High@L4.1
Параметр CABAC формата : Да
Параметр ReFrames формата : 12 кадров
Идентификатор кодека : V_MPEG4/ISO/AVC
Продолжительность : 1 ч. 30 м.
Битрейт : 6165 Кбит/сек
Ширина : 1280 пикселей
Высота : 534 пикселя
Соотношение сторон : 2,40:1
Режим частоты кадров : Постоянный
Частота кадров : 23,976 кадра/сек
Цветовое пространство : YUV
Субдискретизация насыщенности : 4:2:0
Битовая глубина : 8 бит
Тип развёртки : Прогрессивная
Бит/(Пиксели*Кадры) : 0.376
Размер потока : 3,91 Гбайт (53%)
Библиотека кодирования : x264 core 142 r2431 ac76440
Настройки программы : cabac=1 / ref=12 / deblock=1:-3:-3 / analyse=0x3:0x133 / me=umh / subme=10 / psy=1 / psy_rd=1.01:0.00 / mixed_ref=1 / me_range=24 / chroma_me=1 / trellis=2 / 8x8dct=1 / cqm=0 / deadzone=21,11 / fast_pskip=0 / chroma_qp_offset=-2 / threads=6 / lookahead_threads=1 / sliced_threads=0 / nr=0 / decimate=0 / interlaced=0 / bluray_compat=0 / constrained_intra=0 / bframes=12 / b_pyramid=2 / b_adapt=2 / b_bias=0 / direct=3 / weightb=1 / open_gop=0 / weightp=2 / keyint=250 / keyint_min=23 / scenecut=40 / intra_refresh=0 / rc=crf / mbtree=0 / crf=15.5 / qcomp=0.75 / qpmin=0 / qpmax=69 / qpstep=4 / ip_ratio=1.20 / pb_ratio=1.10 / aq=1:0.84
Язык : English
Default : Да
Forced : Нет
DURATION : 01:30:52.447000000
NUMBER_OF_FRAMES : 130728
NUMBER_OF_BYTES : 4355508304
_STATISTICS_WRITING_APP : mkvmerge v7.0.0 ('Where We Going') 64bit built on Jun 9 2014 15:16:27
_STATISTICS_WRITING_DATE_UTC : 2014-06-14 05:41:48
_STATISTICS_TAGS : BPS DURATION NUMBER_OF_FRAMES NUMBER_OF_BYTES
Аудио #1
Идентификатор : 2
Формат : DTS
Формат/Информация : Digital Theater Systems
Режим : 16
Параметр Endianness формата : Big
Идентификатор кодека : A_DTS
Продолжительность : 1 ч. 30 м.
Вид битрейта : Постоянный
Битрейт : 1509 Кбит/сек
Каналы : 6 каналов
Расположение каналов : Front: L C R, Side: L R, LFE
Частота : 48,0 КГц
Битовая глубина : 24 бит
Метод сжатия : С потерями
Размер потока : 981 Мбайт (13%)
Заголовок : DTS 5.1 1536 Kbps [Nemahov]
Язык : Russian
Default : Да
Forced : Нет
Аудио #2
Идентификатор : 3
Формат : DTS
Формат/Информация : Digital Theater Systems
Режим : 16
Параметр Endianness формата : Big
Идентификатор кодека : A_DTS
Продолжительность : 1 ч. 30 м.
Вид битрейта : Постоянный
Битрейт : 1509 Кбит/сек
Каналы : 6 каналов
Расположение каналов : Front: L C R, Side: L R, LFE
Частота : 48,0 КГц
Битовая глубина : 24 бит
Метод сжатия : С потерями
Размер потока : 981 Мбайт (13%)
Заголовок : DTS 5.1 1536 Kbps [Matveev]
Язык : Russian
Default : Нет
Forced : Нет
Аудио #3
Идентификатор : 4
Формат : DTS
Формат/Информация : Digital Theater Systems
Режим : 16
Параметр Endianness формата : Big
Идентификатор кодека : A_DTS
Продолжительность : 1 ч. 30 м.
Вид битрейта : Постоянный
Битрейт : 1509 Кбит/сек
Каналы : 6 каналов
Расположение каналов : Front: L C R, Side: L R, LFE
Частота : 48,0 КГц
Битовая глубина : 24 бит
Метод сжатия : С потерями
Размер потока : 981 Мбайт (13%)
Заголовок : DTS 5.1 1536 Kbps [Esarev]
Язык : Russian
Default : Нет
Forced : Нет
Аудио #4
Идентификатор : 5
Формат : AC-3
Формат/Информация : Audio Coding 3
Расширение режима : CM (complete main)
Параметр Endianness формата : Big
Идентификатор кодека : A_AC3
Продолжительность : 1 ч. 30 м.
Вид битрейта : Постоянный
Битрейт : 640 Кбит/сек
Каналы : 6 каналов
Расположение каналов : Front: L C R, Side: L R, LFE
Частота : 48,0 КГц
Битовая глубина : 16 бит
Метод сжатия : С потерями
Размер потока : 416 Мбайт (6%)
Заголовок : Original
Язык : English
Default : Нет
Forced : Нет
Текст #1
Идентификатор : 6
Формат : UTF-8
Идентификатор кодека : S_TEXT/UTF8
Идентификатор кодека/Информация : UTF-8 Plain Text
Язык : Russian
Default : Нет
Forced : Нет
Текст #2
Идентификатор : 7
Формат : UTF-8
Идентификатор кодека : S_TEXT/UTF8
Идентификатор кодека/Информация : UTF-8 Plain Text
Заголовок : SDH
Язык : English
Default : Нет
Forced : Нет
Текст #3
Идентификатор : 8
Формат : UTF-8
Идентификатор кодека : S_TEXT/UTF8
Идентификатор кодека/Информация : UTF-8 Plain Text
Язык : English
Default : Нет
Forced : Нет
Меню
00:00:00.000 : en:Chapter 01
00:04:57.589 : en:Chapter 02
00:09:20.393 : en:Chapter 03
00:15:45.778 : en:Chapter 04
00:26:24.708 : en:Chapter 05
00:30:58.565 : en:Chapter 06
00:35:43.600 : en:Chapter 07
00:42:11.779 : en:Chapter 08
00:48:55.683 : en:Chapter 09
00:52:51.043 : en:Chapter 10
00:55:15.979 : en:Chapter 11
00:59:19.639 : en:Chapter 12
01:06:33.072 : en:Chapter 13
01:10:08.579 : en:Chapter 14
01:15:10.881 : en:Chapter 15
01:23:17.326 : en:Chapter 16

Скриншоты


_________________
Показать сообщения:    

Текущее время: Сегодня 10:39

Часовой пояс: GMT



Вы не можете начинать темы
Вы не можете отвечать на сообщения
Вы не можете редактировать свои сообщения
Вы не можете удалять свои сообщения
Вы не можете голосовать в опросах
Вы не можете прикреплять файлы к сообщениям
Вы не можете скачивать файлы