Важное объявление!
У Нас Все раздачи мультитрекерные, при нуле пиров в релизах, можете смело вставать на закачку!
 
Автор Сообщение

HUNTER

Стаж:
4 года 4 месяца
Сообщений:
56790

Репутация: 101

[+] [-]
Вне форума [Профиль] [ЛС]

Враг / Enemy
Страна: Канада, Испания
Жанр: триллер, детектив
Год выпуска: 2013
Продолжительность: 01:30:52
Перевод 1: Профессиональный (дублированный) R5
Перевод 2: Одноголосый закадровый Немахов
Перевод 3: Одноголосый закадровый Матвеев
Перевод 4: Одноголосый закадровый Есарев
Cубтитры: Russian, English, Romanian
Оригинальная аудиодорожка: английский
Режиссер: Дени Вильнёв / Denis Villeneuve
В ролях: Джейк Джилленхол, Мелани Лоран, Сара Гадон, Изабелла Росселлини, Джошуа Пиис, Тим Пост, Кедар Браун, Дэррил Динн, Миша Хайстэд, Меган Манн
Описание: Взяв наугад кассету с фильмом в видеопрокате, парень с удивлением замечает в одном из эпизодов актёра, который является почти точной его копией, разве что на пару лет моложе. Вскоре желание найти своего двойника превращается для парня в настоящую навязчивую идею. Длительные бесплодные поиски, в конце концов, становятся причиной странных мистических событий, постепенно погружающих парня в пучину наваждения...
Сэмпл
Тип релиза: BDRip 1080p
Контейнер: MKV
Видео: 1916x800 (2.40:1), 23.976 fps, MPEG-4 AVC ~ 11,0 Мбит/сек avg, 0.299 bit/pixel
Аудио 1: 48 kHz, Dolby AC3, 6 ch, 448 kbps, русский дублированный
Аудио 2: 48 kHz, DTS, 6 ch, 1536 kbps, Немахов
Аудио 3: 48 kHz, DTS, 6 ch, 1536 kbps, Матвеев
Аудио 4: 48 kHz, DTS, 6 ch, 1536 kbps, Есарев
Аудио 5: 48 kHz, DTS, 6 ch, 1536 kbps, английский

Знаете ли Вы, что...

Экранизация романа Жозе Сарамаго «Двойник» (O Homem Duplicado, 2002).
Весь актерский состав подписал соглашение о конфиденциальности, которое запрещало им говорить или объяснять прессе о смысле пауков в фильме.
По словам режиссера Дени Вильнёва, главную роль предлагали Хавьеру Бардему, но актер посчитал, что он не подходит для такой роли. Также главную роль предлагали Кристиану Бэйлу, но тот был вынужден отказаться из-за несогласованности рабочих графиков с другими его проектами.
На пятой минуте фильма, во время лекции, профессор Белл стоит перед доской, на которой написаны концепции и имена философов. Имя немецкого философа Фихте (Fichte) написано с ошибкой - «Fitche».
Когда Энтони звонит Адаму, они договариваются встретиться в воскресенье, в часе езды от города. В кадрах воздушных съемок, когда Адам едет к месту встречи, на фоне виден щит, на котором отображается актуальная дата (13-е июля 2012 года). В эту дату была пятница, а не воскресенье.
Актеры используют поисковик Google, чтобы найти информацию друг о друге. Можно заметить, что в поисковике используется система интеллектуального поиска, которой еще не было в то время, когда происходят события фильма.
В сцене в квартире показывают, как Хеллен надевает только темный топ, но в следующих кадрах можно заметить лямки бюстгальтера под ним.

MediaInfo

Общее
Полное имя : Vrag.2013.D.BDRip.1080p.mkv
Формат : Matroska
Версия формата : Version 4 / Version 2
Размер файла : 11,1 Гбайт
Продолжительность : 1 ч. 30 м.
Общий поток : 17,5 Мбит/сек
Название фильма : Release Group СПАМ
Дата кодирования : UTC 2014-08-22 16:00:06
Программа кодирования : mkvmerge v7.1.0 ('Good Love') 64bit built on Jul 27 2014 13:06:55
Библиотека кодирования : libebml v1.3.0 libmatroska v1.4.1
DURATION : 01:25:11.530000000
NUMBER_OF_FRAMES : 502
NUMBER_OF_BYTES : 23214
_STATISTICS_WRITING_APP : mkvmerge v7.1.0 ('Good Love') 64bit built on Jul 27 2014 13:06:55
_STATISTICS_WRITING_DATE_UTC : 2014-08-22 16:00:06
_STATISTICS_TAGS : BPS DURATION NUMBER_OF_FRAMES NUMBER_OF_BYTES
Attachment : Yes
Видео
Идентификатор : 1
Формат : AVC
Формат/Информация : Advanced Video Codec
Профиль формата : High@L4.1
Параметр CABAC формата : Да
Параметр ReFrames формата : 5 кадров
Идентификатор кодека : V_MPEG4/ISO/AVC
Продолжительность : 1 ч. 30 м.
Битрейт : 11,0 Мбит/сек
Ширина : 1916 пикселей
Высота : 800 пикселей
Соотношение сторон : 2,40:1
Режим частоты кадров : Постоянный
Частота кадров : 23,976 кадра/сек
Цветовое пространство : YUV
Субдискретизация насыщенности : 4:2:0
Битовая глубина : 8 бит
Тип развёртки : Прогрессивная
Бит/(Пиксели*Кадры) : 0.299
Размер потока : 6,75 Гбайт (61%)
Заголовок : Release Group СПАМ
Библиотека кодирования : x264 core 138 r2356 a1d3d17
Настройки программы : cabac=1 / ref=5 / deblock=1:-3:-3 / analyse=0x3:0x113 / me=umh / subme=10 / psy=1 / psy_rd=1.00:0.05 / mixed_ref=1 / me_range=32 / chroma_me=1 / trellis=2 / 8x8dct=1 / cqm=0 / deadzone=21,11 / fast_pskip=0 / chroma_qp_offset=-2 / threads=18 / lookahead_threads=1 / sliced_threads=0 / nr=0 / decimate=1 / interlaced=0 / bluray_compat=0 / constrained_intra=0 / bframes=5 / b_pyramid=2 / b_adapt=2 / b_bias=0 / direct=3 / weightb=1 / open_gop=0 / weightp=2 / keyint=250 / keyint_min=23 / scenecut=40 / intra_refresh=0 / rc=2pass / mbtree=0 / bitrate=10973 / ratetol=1.0 / qcomp=0.70 / qpmin=0 / qpmax=69 / qpstep=4 / cplxblur=20.0 / qblur=0.5 / ip_ratio=1.40 / pb_ratio=1.30 / aq=2:0.90
Язык : English
Default : Да
Forced : Нет
DURATION : 01:30:52.485000000
NUMBER_OF_FRAMES : 130729
NUMBER_OF_BYTES : 7477968228
_STATISTICS_WRITING_APP : mkvmerge v7.1.0 ('Good Love') 64bit built on Jul 27 2014 13:06:55
_STATISTICS_WRITING_DATE_UTC : 2014-08-22 16:00:06
_STATISTICS_TAGS : BPS DURATION NUMBER_OF_FRAMES NUMBER_OF_BYTES
Аудио #1
Идентификатор : 2
Формат : AC-3
Формат/Информация : Audio Coding 3
Расширение режима : CM (complete main)
Параметр Endianness формата : Big
Идентификатор кодека : A_AC3
Продолжительность : 1 ч. 30 м.
Вид битрейта : Постоянный
Битрейт : 448 Кбит/сек
Каналы : 6 каналов
Расположение каналов : Front: L C R, Side: L R, LFE
Частота : 48,0 КГц
Битовая глубина : 16 бит
Метод сжатия : С потерями
Размер потока : 291 Мбайт (3%)
Заголовок : Дублированный (лицензия)
Язык : Russian
Default : Да
Forced : Нет
Аудио #2
Идентификатор : 3
Формат : DTS
Формат/Информация : Digital Theater Systems
Режим : 16
Параметр Endianness формата : Big
Идентификатор кодека : A_DTS
Продолжительность : 1 ч. 30 м.
Вид битрейта : Постоянный
Битрейт : 1509 Кбит/сек
Каналы : 6 каналов
Расположение каналов : Front: L C R, Side: L R, LFE
Частота : 48,0 КГц
Битовая глубина : 24 бит
Метод сжатия : С потерями
Размер потока : 981 Мбайт (9%)
Заголовок : АП. Немахов
Язык : Russian
Default : Нет
Forced : Нет
Аудио #3
Идентификатор : 4
Формат : DTS
Формат/Информация : Digital Theater Systems
Режим : 16
Параметр Endianness формата : Big
Идентификатор кодека : A_DTS
Продолжительность : 1 ч. 30 м.
Вид битрейта : Постоянный
Битрейт : 1509 Кбит/сек
Каналы : 6 каналов
Расположение каналов : Front: L C R, Side: L R, LFE
Частота : 48,0 КГц
Битовая глубина : 24 бит
Метод сжатия : С потерями
Размер потока : 981 Мбайт (9%)
Заголовок : АП. Матвеев
Язык : Russian
Default : Нет
Forced : Нет
Аудио #4
Идентификатор : 5
Формат : DTS
Формат/Информация : Digital Theater Systems
Режим : 16
Параметр Endianness формата : Big
Идентификатор кодека : A_DTS
Продолжительность : 1 ч. 30 м.
Вид битрейта : Постоянный
Битрейт : 1509 Кбит/сек
Каналы : 6 каналов
Расположение каналов : Front: L C R, Side: L R, LFE
Частота : 48,0 КГц
Битовая глубина : 24 бит
Метод сжатия : С потерями
Размер потока : 981 Мбайт (9%)
Заголовок : АП Есарев
Язык : Russian
Default : Нет
Forced : Нет
Аудио #5
Идентификатор : 6
Формат : DTS
Формат/Информация : Digital Theater Systems
Режим : 16
Параметр Endianness формата : Big
Идентификатор кодека : A_DTS
Продолжительность : 1 ч. 30 м.
Вид битрейта : Постоянный
Битрейт : 1509 Кбит/сек
Каналы : 6 каналов
Расположение каналов : Front: L C R, Side: L R, LFE
Частота : 48,0 КГц
Битовая глубина : 24 бит
Метод сжатия : С потерями
Размер потока : 981 Мбайт (9%)
Язык : English
Default : Нет
Forced : Нет
Текст #1
Идентификатор : 7
Формат : UTF-8
Идентификатор кодека : S_TEXT/UTF8
Идентификатор кодека/Информация : UTF-8 Plain Text
Заголовок : Перевод Алексея Матвеева (правленный)
Язык : Russian
Default : Нет
Forced : Нет
Текст #2
Идентификатор : 8
Формат : UTF-8
Идентификатор кодека : S_TEXT/UTF8
Идентификатор кодека/Информация : UTF-8 Plain Text
Заголовок : Notabenoid (правленный)
Язык : Russian
Default : Нет
Forced : Нет
Текст #3
Идентификатор : 9
Формат : UTF-8
Идентификатор кодека : S_TEXT/UTF8
Идентификатор кодека/Информация : UTF-8 Plain Text
Язык : English
Default : Нет
Forced : Нет
Текст #4
Идентификатор : 10
Формат : UTF-8
Идентификатор кодека : S_TEXT/UTF8
Идентификатор кодека/Информация : UTF-8 Plain Text
Заголовок : SDH
Язык : English
Default : Нет
Forced : Нет
Текст #5
Идентификатор : 11
Формат : UTF-8
Идентификатор кодека : S_TEXT/UTF8
Идентификатор кодека/Информация : UTF-8 Plain Text
Заголовок : Romanian
Язык : Romanian
Default : Нет
Forced : Нет
Меню
00:00:00.000 : en:00:00:00.000
00:04:57.589 : en:00:04:57.589
00:09:20.393 : en:00:09:20.393
00:15:45.778 : en:00:15:45.778
00:26:24.708 : en:00:26:24.708
00:30:58.565 : en:00:30:58.565
00:35:43.600 : en:00:35:43.600
00:42:11.779 : en:00:42:11.779
00:48:55.683 : en:00:48:55.683
00:52:51.043 : en:00:52:51.043
00:55:15.979 : en:00:55:15.979
00:59:19.639 : en:00:59:19.639
01:06:33.072 : en:01:06:33.072
01:10:08.579 : en:01:10:08.579
01:15:10.881 : en:01:15:10.881
01:23:17.326 : en:01:23:17.326

Скриншоты

-

_________________
Показать сообщения:    

Текущее время: Сегодня 16:55

Часовой пояс: GMT



Вы не можете начинать темы
Вы не можете отвечать на сообщения
Вы не можете редактировать свои сообщения
Вы не можете удалять свои сообщения
Вы не можете голосовать в опросах
Вы не можете прикреплять файлы к сообщениям
Вы не можете скачивать файлы