Важное объявление!
У Нас Все раздачи мультитрекерные, при нуле пиров в релизах, можете смело вставать на закачку!
 
Автор Сообщение

HUNTER

Стаж:
4 года 4 месяца
Сообщений:
56853

Репутация: 101

[+] [-]
Вне форума [Профиль] [ЛС]

Восьмерка
Страна: Россия
Жанр: драма
Год выпуска: 2013
Продолжительность: 01:21:50
Перевод: Не требуется
Cубтитры: нет
Оригинальная аудиодорожка: русский
Режиссер: Алексей Учитель
В ролях: Артур Смольянинов, Вильма Кутавичюте, Алексей Манцыгин, Александр Новин, Артем Быстров,Павел Ворожцов, Захар Прилепин, Ирина Пегова, Сергей Пускепалис, Владимир Пирожок
Описание: Любовь без тормозов становится причиной смертельной схватки между четверкой молодых парней из спецназа и бандой, которая держит в страхе весь город.
Сэмпл: http://sendfile.su/1004165
Тип релиза: WEB-DL 1080p
Контейнер: MKV
Видео: AVC, 16:9, 1920х1080, 5110 Кбит/сек, 25 кадр/сек
Аудио: AC-3, 6 каналов, 48,0 КГц, 384 Кбит/сек

MediaInfo

Общее
Уникальный идентификатор : 245222666509168178334739792954397313869 (0xB87C2AEAEE1C8EF6A8320D305DE84B4D)
Полное имя : C:\Users\User\Desktop\8_WEB-DL_1080p_BLUEBIRD.mkv
Формат : Matroska
Версия формата : Version 2
Размер файла : 3,20 Гбайт
Продолжительность : 1 ч. 21 м.
Общий поток : 5606 Кбит/сек
Название фильма : 8_WEB-DL_1080p_BLUEBIRD
Дата кодирования : UTC 2014-06-18 20:35:17
Программа кодирования : mkvmerge v2.9.8 ('C'est le bon') built on Aug 13 2009 12:49:06
Библиотека кодирования : libebml v0.7.7 + libmatroska v0.8.1
Видео
Идентификатор : 1
Формат : AVC
Формат/Информация : Advanced Video Codec
Профиль формата : High@L4.0
Параметр CABAC формата : Да
Параметр ReFrames формата : 4 кадра
Идентификатор кодека : V_MPEG4/ISO/AVC
Продолжительность : 1 ч. 21 м.
Битрейт : 5110 Кбит/сек
Ширина : 1920 пикселей
Высота : 1080 пикселей
Соотношение сторон : 16:9
Режим частоты кадров : Постоянный
Частота кадров : 25,000 кадров/сек
Цветовое пространство : YUV
Субдискретизация насыщенности : 4:2:0
Битовая глубина : 8 бит
Тип развёртки : Прогрессивная
Бит/(Пиксели*Кадры) : 0.099
Размер потока : 2,92 Гбайт (91%)
Заголовок : 8_WEB-DL_1080p_BLUEBIRD
Язык : English
Default : Да
Forced : Нет
Основные цвета : BT.709
Характеристики трансфера : BT.709
Коэффициенты матрицы : BT.709
Аудио
Идентификатор : 2
Формат : AC-3
Формат/Информация : Audio Coding 3
Расширение режима : CM (complete main)
Параметр Endianness формата : Big
Идентификатор кодека : A_AC3
Продолжительность : 1 ч. 21 м.
Вид битрейта : Постоянный
Битрейт : 384 Кбит/сек
Каналы : 6 каналов
Расположение каналов : Front: L C R, Side: L R, LFE
Частота : 48,0 КГц
Битовая глубина : 16 бит
Метод сжатия : С потерями
Размер потока : 225 Мбайт (7%)
Заголовок : DD 5.1 @ 384 kbps [ORIGINAL]
Язык : Russian
Default : Да
Forced : Нет
Меню
00:00:00.000 : en:00:00:00.000
00:05:10.000 : en:00:05:10.000
00:10:48.000 : en:00:10:48.000
00:14:58.000 : en:00:14:58.000
00:19:45.000 : en:00:19:45.000
00:25:49.000 : en:00:25:49.000
00:30:16.000 : en:00:30:16.000
00:35:20.000 : en:00:35:20.000
00:39:32.000 : en:00:39:32.000
00:44:07.000 : en:00:44:07.000
00:49:57.000 : en:00:49:57.000
00:55:52.000 : en:00:55:52.000
01:02:33.000 : en:01:02:33.000
01:08:11.000 : en:01:08:11.000
01:13:06.000 : en:01:13:06.000

Скриншоты


_________________
Показать сообщения:    

Текущее время: Сегодня 14:48

Часовой пояс: GMT



Вы не можете начинать темы
Вы не можете отвечать на сообщения
Вы не можете редактировать свои сообщения
Вы не можете удалять свои сообщения
Вы не можете голосовать в опросах
Вы не можете прикреплять файлы к сообщениям
Вы не можете скачивать файлы
Наши партнеры: интернет магазин Ивановского трикотажа textilla.ru