Важное объявление!
У Нас Все раздачи мультитрекерные, при нуле пиров в релизах, можете смело вставать на закачку!
 
Автор Сообщение

HUNTER

Стаж:
4 года 4 месяца
Сообщений:
56808

Репутация: 101

[+] [-]
Вне форума [Профиль] [ЛС]

-
Год выпуска: 2009
Страна: Япония
Жанр: романтика, детектив
Продолжительность: ТВ-сериал, 11 эп. по 24 мин.
Выпуск: c 10.04.2009 по 19.06.2009-Перевод:

  • русские субтитры от Aragami Fansubs (полные/вспомогательные)
    переводчик: ScholiasT, редактор: der_Mond
    -Режиссер: Камияма Кэндзи
    Студия: Production I.G-Описание:
    Японка Саки Морими, выпускница колледжа, во время поездки по США решила посмотреть Белый Дом и чуть не попала в неприятности, бросая монетки в тамошний фонтан. Выручил ее молодой соотечественник, соткавшийся перед Саки и полицейскими буквально из воздуха, будучи в костюме Адама, с пистолетом в одной руке и мобильником в другой. Добросердечная Саки отдала парню свое пальто и только потом вспомнила, что в нем лежали деньги и паспорт. Тем временем таинственный герой выяснил, что телом здоров и крепок, но ничегошеньки о себе не помнит. Имевшийся телефон показал, что парень, вообще-то, миллиардер, а на звонок приятный женский голос ответил, что может только направить его к последнему месту жительства. Прибыв туда, наш герой обнаружил, что квартира напоминает классическое логово террористов – кругом грязь, оружие, взрывчатка, бланки паспортов с его фото и никаких ключей к истинной личности и прошлому…
    И тут в дверь постучала бедняжка Саки, гнавшаяся за своим пальто через весь город. Расценив это как знак судьбы, парень понял, что надо ехать на родину, в Японию, и искать ответы там. Действуя быстро и решительно, он собрался и выбрал себе паспорт, решив отныне зваться Акира Такидзава. В дальнейших приключениях по дороге в аэропорт даже наивная Саки заметила, что, несмотря на амнезию, когда нужно, Акира демонстрирует спецнавыки на уровне пресловутого Джейсона Борна. А увидев по паспорту, что они родились фактически в один день 1989 года, на границе эпох Сёва и Хэйсэй, девушка поняла – она встретила своего принца!
    © Hollow, World Art-Информационные ссылки: AniDB || World Art || MAL-Качество: BDRip
    Энкод: Winter - RG Pantheon
    Тип видео: без хардсаба, без линковки
    Формат: mkv
    Видео: x264 (Hi10p), 1280x720, ~2800 Kbps, 23.976 fps
    Аудио JAP: AC3, 48000Hz, ~640 Kbps, 5.1ch
    Аудио RUS 1-5: AC3, 48000Hz, ~192 Kbps, 2ch (внешними файлами)-

    Список озвучек в раздаче
  • одноголосая (муж.) от Hunter26 (RG Genshiken)
  • одноголосая (муж.) от aki74
  • двухголосая (муж./жен.) от Henesy & Oliva
  • двухголосая (муж./жен.) от NIKITOS & Viki (SHIZA)
  • многоголосая от Underground Voice
    Список эпизодов
    01. Finding A Prince
    02. Melancholic Monday
    03. Evening of the Late Show
    04. Real Reality, Imaginary Reality
    05. Even Though Now Is Not the Time To Think About Things Like That
    06. Eden of the East
    07. Black Swan Dances
    08. Search for a Fore-Lost Journey
    09. A Man Too Transient
    10. Did Someone Kill Takizawa Akira?
    11. The East That Goes On
    СкриншотыОтличия от других раздач
    http://rutracker.org/forum/viewtopic.php?t=2271700
    http://rutracker.org/forum/viewtopic.php?t=2347305
    http://rutracker.org/forum/viewtopic.php?t=1760203
    - BDRip
    http://rutracker.org/forum/viewtopic.php?t=2767853
    http://rutracker.org/forum/viewtopic.php?t=4348681
    - 720p
    http://rutracker.org/forum/viewtopic.php?t=2066628
    - лучшее качество
    Сравнение
    там бандинг-грязь-перешарп

    тут
    Подробные тех. данные
    Общее
    Уникальный идентификатор : 221827632760441933408471270756553747400 (0xA6E272B2EB426D869884494FD2EA6BC8)
    Полное имя : Z:\Anime\720p\Higashi no Eden [BD] [720p]\[Winter] Higashi no Eden 02 [BDrip 1280x720 x264 AC-3].mkv
    Формат : Matroska
    Версия формата : Version 2
    Размер файла : 578 Мбайт
    Продолжительность : 22 м.
    Общий поток : 3585 Кбит/сек
    Дата кодирования : UTC 2014-04-30 08:51:13
    Программа кодирования : mkvmerge v2.9.8 ('C'est le bon') built on Aug 13 2009 12:49:06
    Библиотека кодирования : libebml v0.7.7 + libmatroska v0.8.1
    Видео
    Идентификатор : 1
    Формат : AVC
    Формат/Информация : Advanced Video Codec
    Профиль формата : High 10@L4.1
    Параметр CABAC формата : Да
    Параметр ReFrames формата : 9 кадров
    Идентификатор кодека : V_MPEG4/ISO/AVC
    Продолжительность : 22 м.
    Битрейт : 2873 Кбит/сек
    Ширина : 1280 пикселей
    Высота : 720 пикселей
    Соотношение сторон : 16:9
    Режим частоты кадров : Постоянный
    Частота кадров : 23,976 кадра/сек
    Цветовое пространство : YUV
    Субдискретизация насыщенности : 4:2:0
    Битовая глубина : 10 бит
    Тип развёртки : Прогрессивная
    Бит/(Пиксели*Кадры) : 0.130
    Размер потока : 463 Мбайт (80%)
    Библиотека кодирования : x264 core 132 r2309 3b1f1f7
    Настройки программы : cabac=1 / ref=9 / deblock=1:-2:-2 / analyse=0x3:0x133 / me=umh / subme=9 / psy=1 / psy_rd=0.90:0.00 / mixed_ref=1 / me_range=24 / chroma_me=1 / trellis=2 / 8x8dct=1 / cqm=0 / deadzone=21,11 / fast_pskip=1 / chroma_qp_offset=-2 / threads=12 / lookahead_threads=2 / sliced_threads=0 / nr=0 / decimate=0 / interlaced=0 / bluray_compat=0 / constrained_intra=0 / bframes=8 / b_pyramid=2 / b_adapt=2 / b_bias=0 / direct=1 / weightb=1 / open_gop=0 / weightp=2 / keyint=250 / keyint_min=23 / scenecut=40 / intra_refresh=0 / rc=crf / mbtree=0 / crf=15.7 / qcomp=0.70 / qpmin=9 / qpmax=40 / qpstep=4 / ip_ratio=1.40 / pb_ratio=1.30 / aq=1:0.90
    Default : Нет
    Forced : Нет
    Аудио
    Идентификатор : 2
    Формат : AC-3
    Формат/Информация : Audio Coding 3
    Расширение режима : CM (complete main)
    Параметр Endianness формата : Big
    Идентификатор кодека : A_AC3
    Продолжительность : 22 м.
    Вид битрейта : Постоянный
    Битрейт : 640 Кбит/сек
    Каналы : 6 каналов
    Расположение каналов : Front: L C R, Side: L R, LFE
    Частота : 48,0 КГц
    Битовая глубина : 16 бит
    Метод сжатия : С потерями
    Размер потока : 103 Мбайт (18%)
    Язык : Japanese
    Default : Да
    Forced : Нет
    - -Информация о релизе
  • Выбор видео, перевода, озвучки, а также типа сборки материала осуществляется релизером и не подлежит обсуждению. Если вы считаете, что раздаваемый материал противоречит правилам раздела "Аниме" rutracker.org, сообщите об этом одному из модераторов раздела.
  • В случае появления нового материала или же лучшего по качеству материала релизер оставляет за собой право обновить раздачу. В этом случае вам необходимо ознакомиться с изменениями (добавлениями) и перекачать торрент.
  • Данный релиз предназначен для просмотра на ПК. Воспроизведение на иных проигрывателях не гарантируется. Для просмотра рекомендуется Media Player Classic с установленным пакетом кодеков K-Lite.
  • Данный релиз содержит 10-битное видео (Hi10p). Для корректного воспроизведения обязательно используйте кодеки, поддерживающие 10-битное видео.
    Обсудить частные случаи проблем с воспроизведением и получить дополнительную информацию можно здесь.

  • Данный релиз предназначен для просмотра с внешними субтитрами и внешними звуковыми дорожками.
  • Для просмотра с внешней звуковой дорожкой нужно:
    перекинуть файлы .mka из папки "RUS Sound [<автор(ы) озвучки>]" в одну папку с видео и переключить звуковую дорожку в плеере при просмотре. Как это сделать в разных плеерах подробно описано здесь.

  • Для просмотра с субтитрами нужно:
    перекинуть файлы .ass из папки "RUS Subtitles [<автор(ы) перевода>]" в одну папку с видео - плеер подгрузит их автоматически при открытии видео.

  • Если у вас возникли проблемы с просмотром, не связанные с описанным выше, сообщите о них автору раздачи посредством сообщения в теме или ЛС Aglenn.

  • _________________
    Показать сообщения:    

    Текущее время: Сегодня 09:13

    Часовой пояс: GMT



    Вы не можете начинать темы
    Вы не можете отвечать на сообщения
    Вы не можете редактировать свои сообщения
    Вы не можете удалять свои сообщения
    Вы не можете голосовать в опросах
    Вы не можете прикреплять файлы к сообщениям
    Вы не можете скачивать файлы