Важное объявление!
У Нас Все раздачи мультитрекерные, при нуле пиров в релизах, можете смело вставать на закачку!
 
Автор Сообщение

HUNTER

Стаж:
4 года 4 месяца
Сообщений:
56853

Репутация: 101

[+] [-]
Вне форума [Профиль] [ЛС]

Восстание планеты обезьян / Rise of the Planet of the Apes
«Evolution Becomes Revolution»
-Страна: США
Студия: 20th Century Fox Film Corporation
Жанр: фантастика, боевик, триллер, драма
Год выпуска: 2011
Продолжительность: 01:44:56-Перевод: Профессиональный (дублированный) BD CEE
Перевод 2: Профессиональный (многоголосый закадровый) студия «Омикрон»
Оригинальная аудиодорожка: английский-Режиссер: Руперт Уайатт / Rupert Wyatt
В ролях: Джеймс Франко, Фрида Пинто, Джон Литгоу, Брайан Кокс, Том Фелтон, Дэвид Ойелоуо, Тайлер Лэбин, Джэми Харрис, Дэвид Хьюлетт, Ти Олссон
Описание: Действие фильма происходит в современном Сан-Франциско и строится вокруг ученого, генетические эксперименты которого привели к возникновению высокоразвитого интеллекта у обезьян. Приматы, осознав свое подчиненное положение, поднимают восстание и лишают человека звания царя природы.
Рип от: CtrlHD
Сэмпл: sendfile→, rusfolder→
Тип релиза: BDRip 720p
Контейнер: MKV
Видео: 1280 x 544 (2.353), x264, CRF17, L4.1, 23.976fps, 7880Kbps
Аудио: 48 kHz, DTS 5.1 - 768 kbps |Дубляж, BD CEE|
Аудио 2: 48 kHz, DTS 5.1 - 1536 kbps |MVO, студия «Омикрон»|
Аудио 3: 48 kHz, DTS 5.1 - 1536 kbps |Оригинал|
Аудио 4: 48 kHz, DD 2.0 - 224 kbps |Commentary by Director Rupert Wyatt|
Аудио 5: 48 kHz, DD 2.0 - 224 kbps |Commentary by Writers Rick Jaffa and Amanda Silver|
Cубтитры: Rus (Форсированые, Полные), Eng (Форсированые, Полные, SDH), Ukr, Bul, Cro, Cze ,Est, Fin ,Fre, Ger, Hun, Ita, Lat, Lit, Nor, Slv,Spa-cas, Spa-lat, Swe.

MediaInfo

Полное имя : Rise.of.the.Planet.of.the.Apes.2011.720p.BluRay.x264-CtrlHD.2xRus.Eng.mkv
Формат : Matroska
Версия формата : Version 4 / Version 2
Размер файла : 8.88 GiB
Продолжительность : 1h 44mn
Общий поток : 12.1 Mbps
Название фильма : Rise of the Planet of the Apes (2011) | Rip by CtrlHD
Дата кодирования : UTC 2014-01-21 11:51:51
Программа кодирования : mkvmerge v6.5.0 ('Isn't she lovely') built on Oct 20 2013 12:50:05
Библиотека кодирования : libebml v1.3.0 + libmatroska v1.4.1
Video
Идентификатор : 1
Формат : AVC
Формат/Информация : Advanced Video Codec
Профиль формата : High@L4.1
Параметр CABAC формата : Yes
Параметр ReFrames формата : 12 frames
Идентификатор кодека : V_MPEG4/ISO/AVC
Продолжительность : 1h 44mn
Битрейт : 7 645 Kbps
Ширина : 1 280 pixels
Высота : 544 pixels
Соотношение сторон : 2.35:1
Режим частоты кадров : Constant
Частота кадров : 23.976 fps
Цветовое пространство : YUV
Субдискретизация насыщенности : 4:2:0
Битовая глубина : 8 bits
Тип развёртки : Progressive
Бит/(Пиксели*Кадры) : 0.458
Размер потока : 5.60 GiB (63%)
Заголовок : Rise of the Planet of the Apes (2011) by Djex
Библиотека кодирования : x264 core 140 r2377kMod 1ca7bb9
Настройки программы : cabac=1 / ref=12 / deblock=1:-3:-3 / analyse=0x3:0x113 / me=esa / subme=10 / psy=1 / fade_compensate=0.00 / psy_rd=1.05:0.00 / mixed_ref=1 / me_range=16 / chroma_me=1 / trellis=2 / 8x8dct=1 / cqm=0 / deadzone=21,11 / fast_pskip=0 / chroma_qp_offset=-2 / threads=6 / lookahead_threads=1 / sliced_threads=0 / nr=0 / decimate=0 / interlaced=0 / bluray_compat=0 / constrained_intra=0 / fgo=0 / bframes=8 / b_pyramid=2 / b_adapt=2 / b_bias=0 / direct=3 / weightb=1 / open_gop=0 / weightp=2 / keyint=250 / keyint_min=23 / scenecut=40 / intra_refresh=0 / rc_lookahead=80 / rc=crf / mbtree=0 / crf=17.0000 / qcomp=0.70 / qpmin=0 / qpmax=69 / qpstep=4 / vbv_maxrate=20000 / vbv_bufsize=15000 / crf_max=0.0 / nal_hrd=none / filler=0 / ip_ratio=1.20 / pb_ratio=1.10 / aq=1:0.90
Язык : English
Default : No
Forced : No
Audio #1
Идентификатор : 2
Формат : DTS
Формат/Информация : Digital Theater Systems
Режим : 16
Параметр Endianness формата : Big
Идентификатор кодека : A_DTS
Продолжительность : 1h 44mn
Вид битрейта : Constant
Битрейт : 768 Kbps
Каналы : 6 channels
Расположение каналов : Front: L C R, Side: L R, LFE
Частота : 48.0 KHz
Битовая глубина : 24 bits
Метод сжатия : Lossy
Размер потока : 576 MiB (6%)
Заголовок : DTS 5.1 - 768 kbps |Дубляж, BD CEE|
Язык : Russian
Default : Yes
Forced : No
Audio #2
Идентификатор : 3
Формат : DTS
Формат/Информация : Digital Theater Systems
Режим : 16
Параметр Endianness формата : Big
Идентификатор кодека : A_DTS
Продолжительность : 1h 44mn
Вид битрейта : Constant
Битрейт : 1 509 Kbps
Каналы : 6 channels
Расположение каналов : Front: L C R, Side: L R, LFE
Частота : 48.0 KHz
Битовая глубина : 24 bits
Метод сжатия : Lossy
Размер потока : 1.11 GiB (12%)
Заголовок : DTS 5.1 - 1536 kbps |MVO, студия «Омикрон»|
Язык : Russian
Default : No
Forced : No
Audio #3
Идентификатор : 4
Формат : DTS
Формат/Информация : Digital Theater Systems
Режим : 16
Параметр Endianness формата : Big
Идентификатор кодека : A_DTS
Продолжительность : 1h 44mn
Вид битрейта : Constant
Битрейт : 1 509 Kbps
Каналы : 6 channels
Расположение каналов : Front: L C R, Side: L R, LFE
Частота : 48.0 KHz
Битовая глубина : 24 bits
Метод сжатия : Lossy
Размер потока : 1.11 GiB (12%)
Заголовок : DTS 5.1 - 1536 kbps |Оригинал|
Язык : English
Default : No
Forced : No
Audio #4
Идентификатор : 5
Формат : AC-3
Формат/Информация : Audio Coding 3
Расширение режима : CM (complete main)
Параметр Endianness формата : Big
Идентификатор кодека : A_AC3
Продолжительность : 1h 44mn
Вид битрейта : Constant
Битрейт : 224 Kbps
Каналы : 2 channels
Расположение каналов : Front: L R
Частота : 48.0 KHz
Битовая глубина : 16 bits
Метод сжатия : Lossy
Размер потока : 168 MiB (2%)
Заголовок : |Commentary by Director Rupert Wyatt|
Язык : English
Default : No
Forced : No
Audio #5
Идентификатор : 6
Формат : AC-3
Формат/Информация : Audio Coding 3
Расширение режима : CM (complete main)
Параметр Endianness формата : Big
Идентификатор кодека : A_AC3
Продолжительность : 1h 44mn
Вид битрейта : Constant
Битрейт : 224 Kbps
Каналы : 2 channels
Расположение каналов : Front: L R
Частота : 48.0 KHz
Битовая глубина : 16 bits
Метод сжатия : Lossy
Размер потока : 168 MiB (2%)
Заголовок : |Commentary by Writers Rick Jaffa and Amanda Silver|
Язык : English
Default : No
Forced : No
Text #1
Идентификатор : 7
Формат : UTF-8
Идентификатор кодека : S_TEXT/UTF8
Идентификатор кодека/Информация : UTF-8 Plain Text
Заголовок : Надписи и т.д
Язык : Russian
Default : Yes
Forced : No
Text #2
Идентификатор : 8
Формат : UTF-8
Идентификатор кодека : S_TEXT/UTF8
Идентификатор кодека/Информация : UTF-8 Plain Text
Язык : Russian
Default : No
Forced : No
Text #3
Идентификатор : 9
Формат : UTF-8
Идентификатор кодека : S_TEXT/UTF8
Идентификатор кодека/Информация : UTF-8 Plain Text
Заголовок : Надписи и т.д
Язык : English
Default : No
Forced : No
Text #4
Идентификатор : 10
Формат : UTF-8
Идентификатор кодека : S_TEXT/UTF8
Идентификатор кодека/Информация : UTF-8 Plain Text
Язык : English
Default : No
Forced : No
Text #5
Идентификатор : 11
Формат : UTF-8
Идентификатор кодека : S_TEXT/UTF8
Идентификатор кодека/Информация : UTF-8 Plain Text
Заголовок : SDH
Язык : English
Default : No
Forced : No
Text #6
Идентификатор : 12
Формат : UTF-8
Идентификатор кодека : S_TEXT/UTF8
Идентификатор кодека/Информация : UTF-8 Plain Text
Язык : Ukrainian
Default : No
Forced : No
Text #7
Идентификатор : 13
Формат : UTF-8
Идентификатор кодека : S_TEXT/UTF8
Идентификатор кодека/Информация : UTF-8 Plain Text
Язык : Bulgarian
Default : No
Forced : No
Text #8
Идентификатор : 14
Формат : UTF-8
Идентификатор кодека : S_TEXT/UTF8
Идентификатор кодека/Информация : UTF-8 Plain Text
Язык : Croatian
Default : No
Forced : No
Text #9
Идентификатор : 15
Формат : UTF-8
Идентификатор кодека : S_TEXT/UTF8
Идентификатор кодека/Информация : UTF-8 Plain Text
Язык : Czech
Default : No
Forced : No
Text #10
Идентификатор : 16
Формат : UTF-8
Идентификатор кодека : S_TEXT/UTF8
Идентификатор кодека/Информация : UTF-8 Plain Text
Язык : Estonian
Default : No
Forced : No
Text #11
Идентификатор : 17
Формат : UTF-8
Идентификатор кодека : S_TEXT/UTF8
Идентификатор кодека/Информация : UTF-8 Plain Text
Язык : Finnish
Default : No
Forced : No
Text #12
Идентификатор : 18
Формат : UTF-8
Идентификатор кодека : S_TEXT/UTF8
Идентификатор кодека/Информация : UTF-8 Plain Text
Язык : French
Default : No
Forced : No
Text #13
Идентификатор : 19
Формат : UTF-8
Идентификатор кодека : S_TEXT/UTF8
Идентификатор кодека/Информация : UTF-8 Plain Text
Язык : German
Default : No
Forced : No
Text #14
Идентификатор : 20
Формат : UTF-8
Идентификатор кодека : S_TEXT/UTF8
Идентификатор кодека/Информация : UTF-8 Plain Text
Язык : Italian
Default : No
Forced : No
Text #15
Идентификатор : 21
Формат : UTF-8
Идентификатор кодека : S_TEXT/UTF8
Идентификатор кодека/Информация : UTF-8 Plain Text
Язык : Latvian
Default : No
Forced : No
Text #16
Идентификатор : 22
Формат : UTF-8
Идентификатор кодека : S_TEXT/UTF8
Идентификатор кодека/Информация : UTF-8 Plain Text
Язык : Lithuanian
Default : No
Forced : No
Text #17
Идентификатор : 23
Формат : UTF-8
Идентификатор кодека : S_TEXT/UTF8
Идентификатор кодека/Информация : UTF-8 Plain Text
Язык : Norwegian
Default : No
Forced : No
Text #18
Идентификатор : 24
Формат : UTF-8
Идентификатор кодека : S_TEXT/UTF8
Идентификатор кодека/Информация : UTF-8 Plain Text
Язык : Spanish
Default : No
Forced : No
Text #19
Идентификатор : 25
Формат : UTF-8
Идентификатор кодека : S_TEXT/UTF8
Идентификатор кодека/Информация : UTF-8 Plain Text
Язык : Slovenian
Default : No
Forced : No
Text #20
Идентификатор : 26
Формат : UTF-8
Идентификатор кодека : S_TEXT/UTF8
Идентификатор кодека/Информация : UTF-8 Plain Text
Язык : Spanish
Default : No
Forced : No
Text #21
Идентификатор : 27
Формат : UTF-8
Идентификатор кодека : S_TEXT/UTF8
Идентификатор кодека/Информация : UTF-8 Plain Text
Язык : Swedish
Default : No
Forced : No
Menu
00:00:00.000 : en:Chapter 1
00:05:24.407 : en:Chapter 2
00:09:17.974 : en:Chapter 3
00:14:19.067 : en:Chapter 4
00:18:07.545 : en:Chapter 5
00:20:03.786 : en:Chapter 6
00:22:38.148 : en:Chapter 7
00:25:17.015 : en:Chapter 8
00:29:42.656 : en:Chapter 9
00:33:38.266 : en:Chapter 10
00:38:29.098 : en:Chapter 11
00:41:12.595 : en:Chapter 12
00:45:19.008 : en:Chapter 13
00:48:50.177 : en:Chapter 14
00:52:56.632 : en:Chapter 15
00:57:30.280 : en:Chapter 16
00:59:26.730 : en:Chapter 17
01:01:30.145 : en:Chapter 18
01:05:03.608 : en:Chapter 19
01:06:20.268 : en:Chapter 20
01:09:34.962 : en:Chapter 21
01:11:15.688 : en:Chapter 22
01:15:44.123 : en:Chapter 23
01:18:29.204 : en:Chapter 24
01:23:09.276 : en:Chapter 25
01:27:50.390 : en:Chapter 26
01:33:00.366 : en:Chapter 27
01:37:08.948 : en:Chapter 28

Скриншоты

Source .................. vs .................. CtrlHD .................. vs .................. LiNG






Цитата:

  • Перевод и озвучка студии «Омикрон» осуществлены в рамках сервиса от HDCLUB - "Озвучивание". Спонсоры: 8bitman, kalina08, ultrayozh, Gercules, gregsam, tft, dicka2000, gelom, Slimka, sybir, kimi, valery67, Johnny_78, vanuuatuu, Afolina, Serg_35, sergey6262, Nowikoff, osc, Andrey3, AnryV, Assassin7, Der__Gott.
  • В озвучивании задействовано 6 актеров.

_________________
Показать сообщения:    

Текущее время: Сегодня 12:17

Часовой пояс: GMT



Вы не можете начинать темы
Вы не можете отвечать на сообщения
Вы не можете редактировать свои сообщения
Вы не можете удалять свои сообщения
Вы не можете голосовать в опросах
Вы не можете прикреплять файлы к сообщениям
Вы не можете скачивать файлы
Наши партнеры: интернет магазин Ивановского трикотажа textilla.ru