Важное объявление!
У Нас Все раздачи мультитрекерные, при нуле пиров в релизах, можете смело вставать на закачку!
 
Автор Сообщение

HUNTER

Стаж:
4 года 4 месяца
Сообщений:
56734

Репутация: 101

[+] [-]
Вне форума [Профиль] [ЛС]

Восставший из ада 5 - Преисподняя / Hellraiser 5 - Inferno
Страна: США
Студия: MIRAMAX, STUDIO CANALL +
Жанр: ужасы, драма, криминал, детектив
Год выпуска: 2000
Продолжительность: 01:40:09
Перевод 1: Профессиональный (многоголосый закадровый)
Перевод 2: Авторский (одноголосый закадровый) А.Гаврилов
Cубтитры: русские, английские
Оригинальная аудиодорожка: английский
Режиссер: Скотт Дерриксон / Scott Derrickson
В ролях: Крэйг Шеффер, Николас Туртурро, Джеймс Римар, Даг Брэдли, Николас Сэдлер, Ноэль Эванс, Линдсэй Тейлор, Мэтт Джордж, Майкл Шамус Уайлз, Александра Баррези
Описание: Созданная в 18-м веке магическая головоломка, способная открыть дорогу в ад, попадает в руки порочного полицейского из Лос-Анджелеса. И с этого момента все вокруг становится кошмаром. Может это возмездие за его неправедную жизнь? Но тогда очень страшное, потому что беспредел, творимый Джозефом, оказывается лишь бледной тенью настоящего адского бесчинства, через которое ему предстоит пройти...
Доп. информация: Русские и английские субтитры обрабатывались в Subtitle Workshop так как на диске были только немецкие.
Ремукс с немецкого blu ray диска
Сэмпл: https://yadi.sk/i/aBZffwdYcKAAa
Тип релиза: BDRemux 1080p
Контейнер: MKV
Видео: 1920x1080 (16:9), 23.976 fps, MPEG-4 AVC, 20997 Kbps
Аудио 1: Russian: 48 kHz, AC3, 6 ch, 384 kbps |MVO|
Аудио 2: Russian: 48 kHz, AC3, 6 ch, 384 kbps |А.Гаврилов|
Аудио 3: English: DTS-HD Master Audio - 48 kHz, 5.1 ch, 1875 kbps, 16-bit (DTS Core: 5.1 ch, 48 kHz, 1509 kbps, 16-bit) |original|
Формат субтитров: softsub (SRT)

MediaInfo

C:\МОЙ ХЛАМ\Фильмы\Hellraiser 5. Inferno (2000) BDRemux 1080p\Hellraiser 5. Inferno (2000) BDRemux 1080p.mkv
General
Unique ID : 237705657793128343818499179884597435733 (0xB2D471C6202047B2800551A3625B5D55)
Complete name : C:\МОЙ ХЛАМ\Фильмы\Hellraiser 5. Inferno (2000) BDRemux 1080p\Hellraiser 5. Inferno (2000) BDRemux 1080p.mkv
Format : Matroska
Format version : Version 4 / Version 2
File size : 16.7 GiB
Duration : 1h 40mn
Overall bit rate mode : Variable
Overall bit rate : 23.8 Mbps
Encoded date : UTC 2014-10-27 06:58:02
Writing application : mkvmerge v7.3.0 ('Nouages') 64bit built on Oct 22 2014 18:53:34
Writing library : libebml v1.3.0 + libmatroska v1.4.1
_STATISTICS_WRITING_APP : mkvmerge v7.3.0 ('Nouages') 64bit built on Oct 22 2014 18:53:34
_STATISTICS_WRITING_DATE_UTC : 2014-10-27 06:58:02
_STATISTICS_TAGS : BPS DURATION NUMBER_OF_FRAMES NUMBER_OF_BYTES
DURATION : 01:40:04.960000000
NUMBER_OF_FRAMES : 187655
NUMBER_OF_BYTES : 288238080
Video #1
ID : 1
Format : AVC
Format/Info : Advanced Video Codec
Format profile : High@L4.1
Format settings, CABAC : Yes
Format settings, ReFrames : 4 frames
Codec ID : V_MPEG4/ISO/AVC
Duration : 1h 40mn
Bit rate mode : Variable
Maximum bit rate : 38.0 Mbps
Width : 1 920 pixels
Height : 1 080 pixels
Display aspect ratio : 16:9
Frame rate mode : Constant
Frame rate : 23.976 fps
Color space : YUV
Chroma subsampling : 4:2:0
Bit depth : 8 bits
Scan type : Progressive
Default : Yes
Forced : No
Audio #2
ID : 2
Format : AC-3
Format/Info : Audio Coding 3
Mode extension : CM (complete main)
Format settings, Endianness : Big
Codec ID : A_AC3
Duration : 1h 40mn
Bit rate mode : Constant
Bit rate : 384 Kbps
Channel count : 6 channels
Channel positions : Front: L C R, Side: L R, LFE
Sampling rate : 48.0 KHz
Bit depth : 16 bits
Compression mode : Lossy
Stream size : 276 MiB (2%)
Title : MVO
Language : Russian
Default : Yes
Forced : No
Audio #3
ID : 3
Format : AC-3
Format/Info : Audio Coding 3
Mode extension : CM (complete main)
Format settings, Endianness : Big
Codec ID : A_AC3
Duration : 1h 40mn
Bit rate mode : Constant
Bit rate : 384 Kbps
Channel count : 6 channels
Channel positions : Front: L C R, Side: L R, LFE
Sampling rate : 48.0 KHz
Bit depth : 16 bits
Compression mode : Lossy
Stream size : 276 MiB (2%)
Title : Гаврилов
Language : Russian
Default : No
Forced : No
Audio #4
ID : 4
Format : DTS
Format/Info : Digital Theater Systems
Format profile : MA / Core
Mode : 16
Format settings, Endianness : Big
Codec ID : A_DTS
Duration : 1h 40mn
Bit rate mode : Variable
Bit rate : Unknown / 1 509 Kbps
Channel count : 6 channels
Channel positions : Front: L C R, Side: L R, LFE
Sampling rate : 48.0 KHz
Bit depth : 16 bits
Compression mode : Lossless / Lossy
Language : English
Default : No
Forced : No
Text #5
ID : 5
Format : UTF-8
Codec ID : S_TEXT/UTF8
Codec ID/Info : UTF-8 Plain Text
Language : Russian
Default : Yes
Forced : No
Text #6
ID : 6
Format : UTF-8
Codec ID : S_TEXT/UTF8
Codec ID/Info : UTF-8 Plain Text
Language : English
Default : No
Forced : No

Скриншоты


_________________
Показать сообщения:    

Текущее время: Сегодня 06:59

Часовой пояс: GMT



Вы не можете начинать темы
Вы не можете отвечать на сообщения
Вы не можете редактировать свои сообщения
Вы не можете удалять свои сообщения
Вы не можете голосовать в опросах
Вы не можете прикреплять файлы к сообщениям
Вы не можете скачивать файлы