Важное объявление!
У Нас Все раздачи мультитрекерные, при нуле пиров в релизах, можете смело вставать на закачку!
 
Автор Сообщение

HUNTER

Стаж:
4 года 4 месяца
Сообщений:
56749

Репутация: 101

[+] [-]
Вне форума [Профиль] [ЛС]

Восставшие мертвецы / Dead Rising / Dead Rising: Watchtower
Страна: США
Студия: Legendary Digital Media, Contradiction Films, Di Bonaventura Pictures
Жанр: ужасы
Год выпуска: 2015
Продолжительность: 01:58:07
Перевод: Любительский (двухголосый закадровый)
Cубтитры: нет
Оригинальная аудиодорожка: английский
Режиссер: Зэк Липовски / Zach Lipovsky
В ролях: Киган Коннор Трейси, Меган Ори, Вирджиния Мэдсен, Джесси Меткалф, Деннис Хейсбёрт, Роб Риггл, Джулия Андерсон, Алекс Паунович, Джен Соска, Сильвия Соска
Описание: В Штатах объявился вирус, превращающий людей в зомби, но властям удалось подавить вспышку эпидемии, создав вакцину под названием Zombrex – она помогает не обращаться в кровожадного мертвеца даже тем, кого укусили зараженные. Однако очередная партия Zombrex оказывается неэффективной и возле гигантского стадиона Metrodome начинается эпидемия. В ее эпицентре оказывается журналист Чейз Картер (Джесси Меткалф), который продолжает репортаж, несмотря на хаос творящийся вокруг.
II Сэмпл II IMDB II
Доп. информация:
За русскую дорогу спасибо varvar32
Исходник Dead.Rising.Watchtower.2015.1080p.BluRay.REMUX.AVC.DTS-HD.MA.5.1
Тип релиза: BDRip 1080p
Контейнер: MKV
Видео: AVC / 1920x800 / 2.40:1 / 23.976fps / Bit rate 10000Kbps / High@L4.1
Аудио 1: AC3 / 48.0 KHz / 2ch. / 192kbps / rus / dvo
Аудио 2: DTS / 48.0 KHz / 6ch. / 1509kbps / 24bit / eng

MediaInfo

Общее
Уникальный идентификатор : 191679539375144243206011435062915458438 (0x903422EF19E600AE9E9FC7113B676586)
Полное имя : H:\!_Torrent\Dead.Rising.Watchtower.2015.BDRip.1080p_by_vedigo.mkv
Формат : Matroska
Версия формата : Version 4 / Version 2
Размер файла : 9,65 Гбайт
Продолжительность : 1 ч. 58 м.
Общий поток : 11,7 Мбит/сек
Дата кодирования : UTC 2015-07-31 13:34:00
Программа кодирования : mkvmerge v8.2.0 ('World of Adventure') 64bit
Библиотека кодирования : libebml v1.3.1 + libmatroska v1.4.2
DURATION : 01:58:06.752000000
NUMBER_OF_FRAMES : 664383
NUMBER_OF_BYTES : 1336738596
_STATISTICS_WRITING_APP : mkvmerge v8.2.0 ('World of Adventure') 64bit
_STATISTICS_WRITING_DATE_UTC : 2015-07-31 13:34:00
_STATISTICS_TAGS : BPS DURATION NUMBER_OF_FRAMES NUMBER_OF_BYTES
Видео
Идентификатор : 1
Формат : AVC
Формат/Информация : Advanced Video Codec
Профиль формата : High@L4.1
Параметр CABAC формата : Да
Параметр ReFrames формата : 5 кадров
Идентификатор кодека : V_MPEG4/ISO/AVC
Продолжительность : 1 ч. 58 м.
Битрейт : 10000 Кбит/сек
Ширина : 1920 пикселей
Высота : 800 пикселей
Соотношение сторон : 2,40:1
Режим частоты кадров : Постоянный
Частота кадров : 23,976 кадра/сек
Цветовое пространство : YUV
Субдискретизация насыщенности : 4:2:0
Битовая глубина : 8 бит
Тип развёртки : Прогрессивная
Бит/(Пиксели*Кадры) : 0.272
Размер потока : 8,05 Гбайт (83%)
Заголовок : Dead.Rising.Watchtower.2015.BDRip.1080p_by_vedigo
Библиотека кодирования : x264 core 146 r2538 121396c
Настройки программы : cabac=1 / ref=5 / deblock=1:-3:-3 / analyse=0x3:0x133 / me=umh / subme=11 / psy=1 / psy_rd=1.00:0.10 / mixed_ref=1 / me_range=64 / chroma_me=1 / trellis=2 / 8x8dct=1 / cqm=0 / deadzone=21,11 / fast_pskip=0 / chroma_qp_offset=-3 / threads=12 / lookahead_threads=2 / sliced_threads=0 / nr=0 / decimate=1 / interlaced=0 / bluray_compat=0 / constrained_intra=0 / bframes=8 / b_pyramid=2 / b_adapt=2 / b_bias=0 / direct=3 / weightb=1 / open_gop=0 / weightp=2 / keyint=250 / keyint_min=23 / scenecut=40 / intra_refresh=0 / rc_lookahead=40 / rc=2pass / mbtree=0 / bitrate=10000 / ratetol=1.0 / qcomp=0.60 / qpmin=0 / qpmax=69 / qpstep=4 / cplxblur=20.0 / qblur=0.5 / vbv_maxrate=50000 / vbv_bufsize=62500 / nal_hrd=none / filler=0 / ip_ratio=1.40 / pb_ratio=1.30 / aq=1:1.00
Язык : English
Default : Да
Forced : Нет
DURATION : 01:58:07.331000000
NUMBER_OF_FRAMES : 169926
NUMBER_OF_BYTES : 8847971493
_STATISTICS_WRITING_APP : mkvmerge v8.2.0 ('World of Adventure') 64bit
_STATISTICS_WRITING_DATE_UTC : 2015-07-31 13:34:00
_STATISTICS_TAGS : BPS DURATION NUMBER_OF_FRAMES NUMBER_OF_BYTES
Аудио #1
Идентификатор : 2
Формат : AC-3
Формат/Информация : Audio Coding 3
Расширение режима : CM (complete main)
Параметр Endianness формата : Big
Идентификатор кодека : A_AC3
Продолжительность : 1 ч. 58 м.
Вид битрейта : Постоянный
Битрейт : 192 Кбит/сек
Каналы : 2 канала
Расположение каналов : Front: L R
Частота : 48,0 КГц
Метод сжатия : С потерями
Размер потока : 162 Мбайт (2%)
Заголовок : DVO @ AC3, 2ch
Язык : Russian
Default : Да
Forced : Нет
Аудио #2
Идентификатор : 3
Формат : DTS
Формат/Информация : Digital Theater Systems
Режим : 16
Параметр Endianness формата : Big
Идентификатор кодека : A_DTS
Продолжительность : 1 ч. 58 м.
Вид битрейта : Постоянный
Битрейт : 1509 Кбит/сек
Каналы : 6 каналов
Расположение каналов : Front: L C R, Side: L R, LFE
Частота : 48,0 КГц
Битовая глубина : 24 бит
Метод сжатия : С потерями
Размер потока : 1,25 Гбайт (13%)
Заголовок : original
Язык : English
Default : Нет
Forced : Нет

Скриншоты


Савнение с исходником





x264 info

x264 [info]: frame I:1155 Avg QP:11.68 size:152372
x264 [info]: frame P:52172 Avg QP:13.98 size: 79493
x264 [info]: frame B:116599 Avg QP:15.53 size: 38805
x264 [info]: consecutive B-frames: 8.8% 8.3% 17.0% 17.2% 14.1% 31.4% 2.4% 0.3% 0.5%
x264 [info]: mb I I16..4: 15.8% 34.0% 50.1%
x264 [info]: mb P I16..4: 8.4% 29.0% 20.1% P16..4: 16.1% 16.2% 4.9% 0.9% 0.1% skip: 4.2%
x264 [info]: mb B I16..4: 4.4% 9.1% 5.9% B16..8: 27.6% 18.4% 3.9% direct:11.2% skip:19.4% L0:42.7% L1:40.7% BI:16.6%
x264 [info]: 8x8 transform intra:48.5% inter:47.5%
x264 [info]: direct mvs spatial:99.1% temporal:0.9%
x264 [info]: coded y,uvDC,uvAC intra: 66.4% 86.1% 76.4% inter: 29.6% 39.1% 20.1%
x264 [info]: i16 v,h,dc,p: 30% 18% 17% 36%
x264 [info]: i8 v,h,dc,ddl,ddr,vr,hd,vl,hu: 18% 16% 24% 6% 5% 7% 7% 8% 10%
x264 [info]: i4 v,h,dc,ddl,ddr,vr,hd,vl,hu: 27% 16% 29% 4% 5% 5% 5% 4% 5%
x264 [info]: i8c dc,h,v,p: 53% 21% 17% 9%
x264 [info]: Weighted P-Frames: Y:1.7% UV:1.0%
x264 [info]: ref P L0: 57.2% 9.8% 19.1% 7.0% 5.8% 1.0% 0.0%
x264 [info]: ref B L0: 82.6% 12.8% 3.6% 1.0%
x264 [info]: ref B L1: 94.1% 5.9%
x264 [info]: kb/s:9987.37

_________________
Показать сообщения:    

Текущее время: Сегодня 02:50

Часовой пояс: GMT



Вы не можете начинать темы
Вы не можете отвечать на сообщения
Вы не можете редактировать свои сообщения
Вы не можете удалять свои сообщения
Вы не можете голосовать в опросах
Вы не можете прикреплять файлы к сообщениям
Вы не можете скачивать файлы