Важное объявление!
У Нас Все раздачи мультитрекерные, при нуле пиров в релизах, можете смело вставать на закачку!
 
Автор Сообщение

HUNTER

Стаж:
4 года 4 месяца
Сообщений:
56848

Репутация: 101

[+] [-]
Вне форума [Профиль] [ЛС]


Воспламеняющая взглядом
Firestarter
-

  • Год производства: 1984

  • Страна: США

  • Жанр: Ужасы, фантастика, триллер, экранизация

  • Продолжительность: 01:54:13

  • Перевод: Профессиональный двухголосый, профессиональный многоголосый

  • Субтитры: Английские-
  • Режиссер: Марк Л. Лестер-
  • В ролях: Дэвид Кит, Дрю Бэрримор, Фредди Джонс, Хэзер Локлир, Мартин Шин, Джордж К. Скотт, Арт Карни, Луиз Флетчер, Моузес Ганн, Антонио Фаргас, Дрю Снайдер, Кертис Кредел, Кейт Колбер, Дик Уорлок, Джефф Рэмси, Джек Магнер, Лиза Энн Барнс, Ларри Спринкл, Скотт Р. Дэвис, Нина Джонс, Лоуренс Мур, Энн Фитцгиббон, Стив Боулс, Роберт Миано, Леон Риппи, Кэрол Франциско, Итан Борицер, Джоан Фоли, Джон Сандерфорд, Джордж П. Вилбур, Кэри Фокс-
  • Описание: Экранизация одноименного романа Стивена Кинга. Чарли Макги кажется обычной счастливой девочкой восьми лет, пока что-нибудь не разозлит ее или не начнет угрожать ее семье. Тогда Чарли меняется: проявляется ее унаследованная от родителей смертоносная способность — зажигать взглядом все, что она пожелает. Чарли не всегда может контролировать свою силу и, возможно, когда она вырастет ее могущество будет опасно для всей планеты. Спецслужбы хотят использовать девочку и похищают ее, убивая при этом маму Чарли. Они хотят контролировать девочку… или уничтожить. Ее отец не в силах спасти дочку, но Чарли сумеет позаботиться о себе сама.-
  • Качество видео: BDRip 720p

  • Исходник: BDRemux 1080p

  • Формат видео: mkv

  • Видео кодек: H264

  • Аудио кодек: AC3

  • Видео: 1280x544 (2.35:1), 23.976 fps, 3 465 Kbps, 0.208 bit/pixel

  • Аудио: 48 kHz, AC3 2 ch ~192 kbps avg - DVO (НТВ+)

  • Аудио: 48 kHz, AC3 2 ch ~192 kbps avg - DVO (СТС)

  • Аудио: 48 kHz, AC3 2 ch ~192 kbps avg - DVO (YES)

  • Аудио: 48 kHz, AC3 2 ch ~192 kbps avg- MVO (ТВ 3)-
  • Автор рипа: falco
-

Скриншоты

MediaInfo

General
Unique ID : 237156637671022959647016738088394190640 (0xB26AB4FDF51535D8BCBAA7561A106F30)
Complete name : D:\Торенты\Firestarter.1984.BDRip.720p.falco.mkv
Format : Matroska
Format version : Version 4 / Version 2
File size : 3.39 GiB
Duration : 1h 54mn
Overall bit rate : 4 245 Kbps
Encoded date : UTC 2014-08-31 03:48:59
Writing application : mkvmerge v7.1.0 ('Good Love') 64bit built on Jul 27 2014 13:06:55
Writing library : libebml v1.3.0 + libmatroska v1.4.1
DURATION : 01:48:49.022000000
NUMBER_OF_FRAMES : 2589
NUMBER_OF_BYTES : 8247779
_STATISTICS_WRITING_APP : mkvmerge v7.1.0 ('Good Love') 64bit built on Jul 27 2014 13:06:55
_STATISTICS_WRITING_DATE_UTC : 2014-08-31 03:48:59
_STATISTICS_TAGS : BPS DURATION NUMBER_OF_FRAMES NUMBER_OF_BYTES
Video
ID : 1
Format : AVC
Format/Info : Advanced Video Codec
Format profile : High@L4.1
Format settings, CABAC : Yes
Format settings, ReFrames : 10 frames
Codec ID : V_MPEG4/ISO/AVC
Duration : 1h 54mn
Bit rate : 3 465 Kbps
Width : 1 280 pixels
Height : 544 pixels
Display aspect ratio : 2.35:1
Frame rate : 23.976 fps
Color space : YUV
Chroma subsampling : 4:2:0
Bit depth : 8 bits
Scan type : Progressive
Bits/(Pixel*Frame) : 0.208
Stream size : 2.71 GiB (80%)
Writing library : x264 core 130 r2273 b3065e6
Encoding settings : cabac=1 / ref=10 / deblock=1:-3:-3 / analyse=0x3:0x133 / me=umh / subme=11 / psy=1 / psy_rd=1.00:0.10 / mixed_ref=1 / me_range=32 / chroma_me=1 / trellis=2 / 8x8dct=1 / cqm=0 / deadzone=21,11 / fast_pskip=0 / chroma_qp_offset=-3 / threads=6 / lookahead_threads=1 / sliced_threads=0 / nr=0 / decimate=0 / interlaced=0 / bluray_compat=0 / constrained_intra=0 / bframes=8 / b_pyramid=2 / b_adapt=2 / b_bias=0 / direct=3 / weightb=1 / open_gop=0 / weightp=2 / keyint=240 / keyint_min=23 / scenecut=40 / intra_refresh=0 / rc_lookahead=60 / rc=2pass / mbtree=1 / bitrate=3465 / ratetol=1.0 / qcomp=0.70 / qpmin=0 / qpmax=69 / qpstep=4 / cplxblur=20.0 / qblur=0.5 / vbv_maxrate=50000 / vbv_bufsize=62500 / nal_hrd=none / ip_ratio=1.40 / aq=1:1.00
Default : Yes
Forced : No
Audio #1
ID : 2
Format : AC-3
Format/Info : Audio Coding 3
Mode extension : CM (complete main)
Format settings, Endianness : Big
Codec ID : A_AC3
Duration : 1h 54mn
Bit rate mode : Constant
Bit rate : 192 Kbps
Channel(s) : 2 channels
Channel positions : Front: L R
Sampling rate : 48.0 KHz
Bit depth : 16 bits
Compression mode : Lossy
Stream size : 157 MiB (5%)
Title : Профессиональный двухголосый (НТВ+)
Language : Russian
Default : Yes
Forced : No
Audio #2
ID : 3
Format : AC-3
Format/Info : Audio Coding 3
Mode extension : CM (complete main)
Format settings, Endianness : Big
Codec ID : A_AC3
Duration : 1h 54mn
Bit rate mode : Constant
Bit rate : 192 Kbps
Channel(s) : 2 channels
Channel positions : Front: L R
Sampling rate : 48.0 KHz
Bit depth : 16 bits
Compression mode : Lossy
Stream size : 157 MiB (5%)
Title : Профессиональный двухголосый (СТС)
Language : Russian
Default : No
Forced : No
Audio #3
ID : 4
Format : AC-3
Format/Info : Audio Coding 3
Mode extension : CM (complete main)
Format settings, Endianness : Big
Codec ID : A_AC3
Duration : 1h 54mn
Bit rate mode : Constant
Bit rate : 192 Kbps
Channel(s) : 2 channels
Channel positions : Front: L R
Sampling rate : 48.0 KHz
Bit depth : 16 bits
Compression mode : Lossy
Stream size : 157 MiB (5%)
Title : Профессиональный двухголосый (YES)
Language : Russian
Default : No
Forced : No
Audio #4
ID : 5
Format : AC-3
Format/Info : Audio Coding 3
Mode extension : CM (complete main)
Format settings, Endianness : Big
Codec ID : A_AC3
Duration : 1h 54mn
Bit rate mode : Constant
Bit rate : 192 Kbps
Channel(s) : 2 channels
Channel positions : Front: L R
Sampling rate : 48.0 KHz
Bit depth : 16 bits
Compression mode : Lossy
Stream size : 157 MiB (5%)
Title : Профессиональный многоголосый (ТВ 3)
Language : Russian
Default : No
Forced : No
Text
ID : 6
Format : PGS
Muxing mode : zlib
Codec ID : S_HDMV/PGS
Codec ID/Info : The same subtitle format used on BDs/HD-DVDs
Language : English
Default : Yes
Forced : No
-Источник:

_________________
Показать сообщения:    

Текущее время: Сегодня 07:13

Часовой пояс: GMT



Вы не можете начинать темы
Вы не можете отвечать на сообщения
Вы не можете редактировать свои сообщения
Вы не можете удалять свои сообщения
Вы не можете голосовать в опросах
Вы не можете прикреплять файлы к сообщениям
Вы не можете скачивать файлы
Наши партнеры: интернет магазин Ивановского трикотажа textilla.ru