Важное объявление!
У Нас Все раздачи мультитрекерные, при нуле пиров в релизах, можете смело вставать на закачку!
 
Автор Сообщение

HUNTER

Стаж:
4 года 4 месяца
Сообщений:
56765

Репутация: 101

[+] [-]
Вне форума [Профиль] [ЛС]

Воскрешение / А Resurrection -
Год выпуска: 2013
Страна: США
Жанр: Триллер
Продолжительность: 01:30:20
Перевод: Дублированный [Лицензия]
Субтитры: English -В ролях: Миша Бартон, Девон Сава, Майкл Кларк Дункан, Джонатан Майкл Траутмэнн, Стюарт Стоун, Николас Джендл, Мэттью Уиллиг, Аланна Романски, Морган Волк, Бренден М. Смит и др.
Режиссёр: Мэтт Орландо - -История о подростке, который похоронил своего родного брата, но не хочет признать и поверить в это. С ним долгое время работает психолог, который пытается ему это объяснить, но подросток на каждом сеансе отрицает факт смерти. Вскоре полицейские обнаруживают вскрытую могилу, из которой исчезло тело брата. После этого, по мистическому совпадению, подросток начинает видеть убийства, которые должны совершиться в ближайшее время и рисует их в своих рисунках. Психологи и полиция начинают работать с подростком, но открытие поражает их сознание.-Качество: BDRip 720p
Формат: MKV
Видео кодек: AVC
Аудио кодек: AC-3,DTS
Видео: AVC, 1280x640, 5419 Кбит/сек, 29.970 кадр/сек
Аудио 1: AC-3, 448 Кбит/сек, 6 канала(ов), 48,0 КГц (Russian)
Аудио 2: DTS, 1509 Кбит/сек, 6 канала(ов), 48,0 КГц (English)-

Рейтинг:

Рейтинг:

MediaInfo:

General
Unique ID : 219299600260816698540785632262539158416 (0xA4FB9112D25876DFB94FC88843EBA390)
Complete name : C:\Users\Fr1sk\Desktop\Новая папка (2)\Voskreshenie.2013.D.BDRip.720p.mkv
Format : Matroska
Format version : Version 2
File size : 4.64 GiB
Duration : 1h 30mn
Overall bit rate : 7 355 Kbps
Encoded date : UTC 2013-11-20 03:39:52
Writing application : mkvmerge v5.2.0 ('I can't explain') built on Dec 18 2011 18:12:03
Writing library : libebml v1.2.3 + libmatroska v1.3.0
Video
ID : 1
Format : AVC
Format/Info : Advanced Video Codec
Format profile : [url=mailto:High@L4.1]High@L4.1[/url]
Format settings, CABAC : Yes
Format settings, ReFrames : 8 frames
Muxing mode : Header stripping
Codec ID : V_MPEG4/ISO/AVC
Duration : 1h 30mn
Bit rate : 5 419 Kbps
Width : 1 280 pixels
Height : 640 pixels
Display aspect ratio : 2.000
Frame rate mode : Constant
Frame rate : 29.970 fps
Color space : YUV
Chroma subsampling : 4:2:0
Bit depth : 8 bits
Scan type : Progressive
Bits/(Pixel*Frame) : 0.221
Stream size : 3.31 GiB (71%)
Writing library : x264 core 130 r2273 b3065e6
Encoding settings : cabac=1 / ref=9 / deblock=1:-3:-3 / analyse=0x3:0x113 / me=umh / subme=11 / psy=1 / psy_rd=1.00:0.00 / mixed_ref=1 / me_range=64 / chroma_me=1 / trellis=2 / 8x8dct=1 / cqm=0 / deadzone=21,11 / fast_pskip=0 / chroma_qp_offset=-2 / threads=12 / lookahead_threads=3 / sliced_threads=0 / slices=4 / nr=0 / decimate=0 / interlaced=0 / bluray_compat=0 / constrained_intra=0 / bframes=16 / b_pyramid=1 / b_adapt=2 / b_bias=0 / direct=2 / weightb=1 / open_gop=0 / weightp=2 / keyint=300 / keyint_min=29 / scenecut=80 / intra_refresh=0 / rc_lookahead=50 / rc=2pass / mbtree=1 / bitrate=5419 / ratetol=1.0 / qcomp=0.60 / qpmin=0 / qpmax=69 / qpstep=4 / cplxblur=20.0 / qblur=0.5 / vbv_maxrate=40000 / vbv_bufsize=38000 / nal_hrd=none / ip_ratio=1.40 / aq=1:1.00
Language : English
Default : Yes
Forced : Yes
Audio #1
ID : 2
Format : AC-3
Format/Info : Audio Coding 3
Mode extension : CM (complete main)
Format settings, Endianness : Big
Muxing mode : Header stripping
Codec ID : A_AC3
Duration : 1h 30mn
Bit rate mode : Constant
Bit rate : 448 Kbps
Channel(s) : 6 channels
Channel positions : Front: L C R, Side: L R, LFE
Sampling rate : 48.0 KHz
Bit depth : 16 bits
Compression mode : Lossy
Stream size : 290 MiB (6%)
Language : Russian
Default : Yes
Forced : Yes
Audio #2
ID : 3
Format : DTS
Format/Info : Digital Theater Systems
Mode : 16
Format settings, Endianness : Big
Muxing mode : Header stripping
Codec ID : A_DTS
Duration : 1h 30mn
Bit rate mode : Constant
Bit rate : 1 509 Kbps
Channel(s) : 6 channels
Channel positions : Front: L C R, Side: L R, LFE
Sampling rate : 48.0 KHz
Bit depth : 24 bits
Compression mode : Lossy
Stream size : 975 MiB (21%)
Language : English
Default : No
Forced : No
Text
ID : 4
Format : UTF-8
Codec ID : S_TEXT/UTF8
Codec ID/Info : UTF-8 Plain Text
Language : English
Default : No
Forced : No

Скриншоты:


_________________
Показать сообщения:    

Текущее время: Сегодня 01:34

Часовой пояс: GMT



Вы не можете начинать темы
Вы не можете отвечать на сообщения
Вы не можете редактировать свои сообщения
Вы не можете удалять свои сообщения
Вы не можете голосовать в опросах
Вы не можете прикреплять файлы к сообщениям
Вы не можете скачивать файлы