Важное объявление!
У Нас Все раздачи мультитрекерные, при нуле пиров в релизах, можете смело вставать на закачку!
 
Автор Сообщение

HUNTER

Стаж:
4 года 4 месяца
Сообщений:
56783

Репутация: 101

[+] [-]
Вне форума [Профиль] [ЛС]

Восемь безумных ночей
Eight Crazy Nights
«The Ultimate Battle Between Naughty And Nice.»
Год выпуска: 2002
Страна: США
Жанр: мультфильм, мюзикл, драма, комедия
Продолжительность: 01:16:12
Перевод: Профессиональный (Многоголосый закадровый)
русские субтитры: есть-Режиссёр: Сет Кирсли : Seth Kearsley-Роли озвучивали: Адам Сэндлер, Джеки Сэндлер, Остин Стаут, Кевин Нилон, Роб Шнайдер, Норм Кросби, Джон Ловиц, Тайра Бэнкс, Блейк Кларк, Питер Данте-Описание: Дэйви Стоун, 30-летний парень, у которого начинаются проблемы с законом после того, как его и без того дикие выходки заходят слишком далеко. Пожалев парня, судья дает ему последний шанс — или он участвует как дополнительный рефери в играх молодежной баскетбольной лиги, или садится за решетку.
Дэйви думает, что он очень легко отделался от тюрьмы, пока не встречает Вайти Дюваля, эксцентричного главного рефери. Полное несоответствие между добросердечным, полным оптимизма Вайти и Дэйви с его проделками, не приносящими окружающим ничего кроме проблем, не мешает тем не менее им стать друзьями.- релиз: -- Работа с WEB-DL и звуком -Azureus--Качество: WEB-DL 720p
Формат: MKV
Видео кодек: AVC
Аудио кодек: AC3
Видео: 1280x718 , 23,976 fps, ~3810 kbps avg, 0.173 bit/pixel
Аудио #1: [RUS] 48 kHz, AC3 Dolby Digital, 3/2 (L,C,R,l,r) + LFE ch, ~448 kbps avg
Аудио #2: [ENG] 48 kHz, AC3 Dolby Digital, 3/2 (L,C,R,l,r) + LFE ch, ~448 kbps avg
субтитры: русские, английские
навигация по главам: 28 глав (именные)

MediaInfo

Общее
Уникальный идентификатор : 218633096424283637310537631461638278463 (0xA47B33E5B45C1A8E8BB266A2253E0D3F)
Полное имя : D:\Im\Eight Crazy Nights\Eight Crazy Nights.2002.WEB-DL 720p.mkv
Формат : Matroska
Версия формата : Version 4 / Version 2
Размер файла : 2,56 Гбайт
Продолжительность : 1 ч. 16 м.
Общий поток : 4802 Кбит/сек
Название фильма : Eight Crazy Nights.2002.WEB-DL 720p -Azureus-
Дата кодирования : UTC 2015-03-30 10:31:24
Программа кодирования : mkvmerge v7.8.0 ('River Man') 32bit built on Mar 27 2015 16:18:02
Библиотека кодирования : libebml v1.3.1 + libmatroska v1.4.2
DURATION : 01:09:56.950000000
NUMBER_OF_FRAMES : 1095
NUMBER_OF_BYTES : 61298
_STATISTICS_WRITING_APP : mkvmerge v7.8.0 ('River Man') 32bit built on Mar 27 2015 16:18:02
_STATISTICS_WRITING_DATE_UTC : 2015-03-30 10:31:24
_STATISTICS_TAGS : BPS DURATION NUMBER_OF_FRAMES NUMBER_OF_BYTES
Видео
Идентификатор : 1
Формат : AVC
Формат/Информация : Advanced Video Codec
Профиль формата : High@L3.1
Параметр CABAC формата : Нет
Параметр ReFrames формата : 2 кадра
Идентификатор кодека : V_MPEG4/ISO/AVC
Продолжительность : 1 ч. 16 м.
Битрейт : 3810 Кбит/сек
Ширина : 1280 пикселей
Высота : 718 пикселей
Соотношение сторон : 16:9
Частота кадров : 23,976 кадра/сек
Цветовое пространство : YUV
Субдискретизация насыщенности : 4:2:0
Битовая глубина : 8 бит
Тип развёртки : Прогрессивная
Бит/(Пиксели*Кадры) : 0.173
Размер потока : 2,03 Гбайт (79%)
Язык : English
Default : Да
Forced : Нет
Основные цвета : BT.709-5, BT.1361, IEC 61966-2-4, SMPTE RP177
Характеристики трансфера : BT.709-5, BT.1361
Коэффициенты матрицы : BT.709-5, BT.1361, IEC 61966-2-4 709, SMPTE RP177
Аудио #1
Идентификатор : 2
Формат : AC-3
Формат/Информация : Audio Coding 3
Расширение режима : CM (complete main)
Идентификатор кодека : A_AC3
Продолжительность : 1 ч. 16 м.
Вид битрейта : Постоянный
Битрейт : 448 Кбит/сек
Каналы : 6 каналов
Расположение каналов : Front: L C R, Side: L R, LFE
Частота : 48,0 КГц
Битовая глубина : 16 бит
Метод сжатия : С потерями
Размер потока : 244 Мбайт (9%)
Заголовок : MVO
Язык : Russian
Default : Да
Forced : Нет
Аудио #2
Идентификатор : 3
Формат : AC-3
Формат/Информация : Audio Coding 3
Расширение режима : CM (complete main)
Идентификатор кодека : A_AC3
Продолжительность : 1 ч. 16 м.
Вид битрейта : Постоянный
Битрейт : 448 Кбит/сек
Каналы : 6 каналов
Расположение каналов : Front: L C R, Side: L R, LFE
Частота : 48,0 КГц
Битовая глубина : 16 бит
Метод сжатия : С потерями
Размер потока : 244 Мбайт (9%)
Заголовок : ENG
Язык : English
Default : Нет
Forced : Нет
Текст #1
Идентификатор : 4
Формат : UTF-8
Идентификатор кодека : S_TEXT/UTF8
Идентификатор кодека/Информация : UTF-8 Plain Text
Заголовок : Rus Sub
Язык : Russian
Default : Нет
Forced : Нет
Текст #2
Идентификатор : 5
Формат : UTF-8
Идентификатор кодека : S_TEXT/UTF8
Идентификатор кодека/Информация : UTF-8 Plain Text
Заголовок : Eng Sub
Язык : English
Default : Нет
Forced : Нет
Меню
00:00:00.000 : en:Start
00:01:15.000 : en:Davey Stone, holiday humbug
00:03:24.000 : en:"Davey's Song"
00:05:21.000 : en:Whitey
00:08:58.000 : en:Referee-in-training
00:11:32.000 : en:Jennifer & Benjamin
00:14:27.000 : en:The Mayor
00:15:29.000 : en:"Patch Song"
00:16:23.000 : en:Infamous peanut brittle incident
00:19:25.000 : en:Eleanore
00:21:43.000 : en:Port-A-Potty ride
00:24:59.000 : en:Shirts vs Skins
00:30:20.000 : en:"Long Ago"
00:31:52.000 : en:Festival of Lights
00:34:50.000 : en:"Technical Foul"
00:39:13.000 : en:The skating pond
00:41:30.000 : en:JCC miracle game
00:43:24.000 : en:Unhappy ending
00:47:46.000 : en:"Intervention Song"
00:51:41.000 : en:Eli Wolstan, stealer of wigs
00:54:23.000 : en:The Mayor's joke
00:55:18.000 : en:Most Impressive Growth Spurt Award
00:56:44.000 : en:35th Annual All-Star Patch Award
00:58:57.000 : en:Tom Baltezor
01:00:14.000 : en:Parting words of wisdom
01:01:31.000 : en:"Bum Biddy"
01:07:53.000 : en:"Grand Finale/It's Your Moment, Whitey!"
01:10:38.000 : en:"The Chanukah Song Part 3"
____________________________________________
Стою на раздаче до 5 дней.
Просьба скачавшим как можно дольше не покидать раздачу!
ВСЕМ ПРИЯТНОГО ПРОСМОТРА!_________________________________________

_________________
Показать сообщения:    

Текущее время: Сегодня 21:07

Часовой пояс: GMT



Вы не можете начинать темы
Вы не можете отвечать на сообщения
Вы не можете редактировать свои сообщения
Вы не можете удалять свои сообщения
Вы не можете голосовать в опросах
Вы не можете прикреплять файлы к сообщениям
Вы не можете скачивать файлы