Важное объявление!
У Нас Все раздачи мультитрекерные, при нуле пиров в релизах, можете смело вставать на закачку!
 
Автор Сообщение

димитри37

Стаж:
3 года 8 месяцев
Сообщений:
1237

Репутация: 127

[+] [-]
Вне форума [Профиль] [ЛС]

Воры в законе-
Жанр: боевик
Год выпуска: 1988
Продолжительность: 01:29:21-Режиссёр: Юрий Кара-В ролях:
Анна Самохина - Рита
Валентин Гафт - Артур
Владимир Стеклов - Володя Петров
Борис Щербаков - Андрей
Арнис Лицитис - следователь
Нурбей Камкиа - отец Риты
Зиновий Гердт - адвокат
Гиви Лежава - Рамзес
Амаяк Акопян - «кукольник»
Станислав Коренев - прокурор
Константин Кищук - Гарик
Сергей Максачёв - преследователь
Сергей Никулин - директор бара
Сергей Силкин - водитель Артура
Каха Дзадзамия - таксист
Описание: Актуальный для конца восьмидесятых остросоциальный боевик о советской коррупции, расцветшей в благоприятных условиях черноморского побережья и паралича власти. Гангстерская история из жизни «кавказской мафии», где двое главарей враждующих группировок из южного приморского городка борются за сферы влияния.- -Качество видео: DVDRip-AVC
Формат видео: MKV
Видео: x264 (High@L4.1); Анаморф 708х404@454; Display aspect ratio: 1.559:1, 25.000 fps, 1881 Kbps
Аудио: Оригинал AC-3; 16 bit 48 Khz; 6ch 448 Kbps; CBR

MediaInfo

General
Unique ID : 192725742429726429025232357431533290734 (0x90FDA0BA1EBE24CE993B503AA05AC4EE)
Complete name : Воры в законе.1988.mkv
Format : Matroska
Format version : Version 2
File size : 1.45 GiB
Duration : 1h 29mn
Overall bit rate : 2 331 Kbps
Movie name : «Воры в законе»
Encoded date : UTC 2013-03-25 14:32:30
Writing application : mkvmerge v5.8.0 ('No Sleep / Pillow') built on Sep 2 2012 15:37:04
Writing library : libebml v1.2.3 + libmatroska v1.3.0
Comment : DVDRip-AVC
Original date released : March 25th 2013
Encoded by : imgeorgest®
Video
ID : 1
Format : AVC
Format/Info : Advanced Video Codec
Format profile : High@L4.1
Format settings, CABAC : Yes
Format settings, ReFrames : 16 frames
Codec ID : V_MPEG4/ISO/AVC
Duration : 1h 29mn
Bit rate : 1 881 Kbps
Width : 708 pixels
Height : 404 pixels
Display aspect ratio : 1.559
Original display aspect ratio : 1.558
Frame rate : 25.000 fps
Color space : YUV
Chroma subsampling : 4:2:0
Bit depth : 8 bits
Scan type : Progressive
Bits/(Pixel*Frame) : 0.263
Stream size : 1.15 GiB (79%)
Title : Воры в законе.1988
Writing library : x264 core 125 r2200 999b753
Encoding settings : cabac=1 / ref=16 / deblock=1:-1:-1 / analyse=0x3:0x133 / me=umh / subme=11 / psy=1 / psy_rd=1.00:0.15 / mixed_ref=1 / me_range=48 / chroma_me=1 / trellis=2 / 8x8dct=1 / cqm=0 / deadzone=21,11 / fast_pskip=0 / chroma_qp_offset=-3 / threads=12 / lookahead_threads=2 / sliced_threads=0 / nr=0 / decimate=0 / interlaced=0 / bluray_compat=0 / constrained_intra=0 / bframes=10 / b_pyramid=2 / b_adapt=2 / b_bias=0 / direct=3 / weightb=1 / open_gop=0 / weightp=2 / keyint=250 / keyint_min=25 / scenecut=40 / intra_refresh=0 / rc_lookahead=60 / rc=2pass / mbtree=1 / bitrate=1881 / ratetol=1.0 / qcomp=0.60 / qpmin=0 / qpmax=69 / qpstep=4 / cplxblur=20.0 / qblur=0.5 / vbv_maxrate=50000 / vbv_bufsize=62500 / nal_hrd=none / ip_ratio=1.40 / aq=1:1.00
Language : Russian
Default : Yes
Forced : No
Color primaries : BT.470-6 System B, BT.470-6 System G, BT.601-6 625, BT.1358 625, BT.1700 625 PAL, BT.1700 625 SECAM
Transfer characteristics : BT.470-6 System B, BT.470-6 System G
Matrix coefficients : BT.470-6 System B, BT.470-6 System G, BT.601-6 625, BT.1358 625, BT.1700 625 PAL, BT.1700 625 SECAM, IEC 61966-2-4 601
Audio
ID : 2
Format : AC-3
Format/Info : Audio Coding 3
Mode extension : CM (complete main)
Codec ID : A_AC3
Duration : 1h 29mn
Bit rate mode : Constant
Bit rate : 448 Kbps
Channel(s) : 6 channels
Channel positions : Front: L C R, Side: L R, LFE
Sampling rate : 48.0 KHz
Bit depth : 16 bits
Compression mode : Lossy
Stream size : 286 MiB (19%)
Title : Оригинал AC-3; 16 bit 48 Khz; 6ch 448 Kbps; CBR
Language : Russian
Default : Yes
Forced : No

x264 log

...last pass...
x264.exe: --pass 2 --bitrate 1881 --preset medium --ref 16 --deblock -1:-1 --merange 48 --bframes 10 --direct auto --b-adapt 2 --trellis 2 --no-fast-pskip --no-dct-decimate --psy-rd 1.00:0.15 --vbv-maxrate 50000 --vbv-bufsize 62500 --partitions all --subme 11 --me umh --rc-lookahead 60 --colorprim bt470bg --transfer bt470bg --colormatrix bt470bg --sar 8:9 --stats "K:\Воры в законе.1988.log" --output "K:\Воры в законе.1988.mkv" "L:\Temp\1288.avs"
avs [info]: 708x404p 8:9 @ 25/1 fps (cfr)
x264 [info]: using SAR=8/9
x264 [info]: using cpu capabilities: MMX2 SSE2Fast SSSE3 FastShuffle SSE4.2
x264 [info]: profile High, level 4.1
x264 [info]: frame I:707 Avg QP:19.23 size: 37665
x264 [info]: frame P:27929 Avg QP:20.30 size: 20862
x264 [info]: frame B:105395 Avg QP:23.17 size: 6180
x264 [info]: consecutive B-frames: 0.9% 1.3% 5.1% 19.5% 41.1% 23.5% 5.3% 1.7% 0.6% 1.0% 0.0%
x264 [info]: mb I I16..4: 2.3% 87.4% 10.3%
x264 [info]: mb P I16..4: 0.4% 17.0% 2.3% P16..4: 28.4% 34.4% 12.9% 4.1% 0.4% skip: 0.1%
x264 [info]: mb B I16..4: 0.1% 2.5% 0.3% B16..8: 32.0% 23.7% 4.5% direct:11.1% skip:25.8% L0:38.0% L1:41.8% BI:20.2%
x264 [info]: 8x8 transform intra:86.7% inter:65.6%
x264 [info]: direct mvs spatial:97.6% temporal:2.4%
x264 [info]: coded y,uvDC,uvAC intra: 91.4% 82.9% 42.2% inter: 40.1% 28.5% 8.4%
x264 [info]: i16 v,h,dc,p: 20% 25% 4% 51%
x264 [info]: i8 v,h,dc,ddl,ddr,vr,hd,vl,hu: 13% 11% 7% 9% 11% 12% 11% 13% 13%
x264 [info]: i4 v,h,dc,ddl,ddr,vr,hd,vl,hu: 39% 18% 4% 4% 7% 8% 7% 6% 7%
x264 [info]: i8c dc,h,v,p: 38% 27% 21% 15%
x264 [info]: Weighted P-Frames: Y:23.2% UV:6.0%
x264 [info]: ref P L0: 31.3% 10.7% 19.2% 7.9% 6.6% 4.6% 4.3% 2.2% 2.3% 1.9% 1.9% 1.5% 1.6% 1.3% 1.4% 1.0%
x264 [info]: ref B L0: 79.6% 10.4% 2.7% 1.7% 1.1% 1.0% 0.7% 0.5% 0.4% 0.4% 0.3% 0.3% 0.3% 0.2% 0.1%
x264 [info]: ref B L1: 96.4% 3.6%
x264 [info]: kb/s:1881.08
x264 [total]: encoded 134031 frames, 11.09 fps, 1881.08 kb/s

Скриншоты

Исходник

Сравнение

* Восстановлен оригинальный фреймрейт: PAL 25.000 к/сек.
С исходником: bob()
http://rutracker.org/forum/viewtopic.php?t=495129
http://screenshotcomparison.com/comparison/15528
С раздачей:
http://rutracker.org/forum/viewtopic.php?t=2011255
http://screenshotcomparison.com/comparison/15531
Показать сообщения:    

Текущее время: Сегодня 12:47

Часовой пояс: GMT



Вы не можете начинать темы
Вы не можете отвечать на сообщения
Вы не можете редактировать свои сообщения
Вы не можете удалять свои сообщения
Вы не можете голосовать в опросах
Вы не можете прикреплять файлы к сообщениям
Вы не можете скачивать файлы