Важное объявление!
У Нас Все раздачи мультитрекерные, при нуле пиров в релизах, можете смело вставать на закачку!
 
Автор Сообщение

HUNTER

Стаж:
4 года 4 месяца
Сообщений:
56829

Репутация: 101

[+] [-]
Вне форума [Профиль] [ЛС]

-Ворона-проказница / Der kleine Rabe Socke
-Страна: Германия
Студия: Akkord Film Produktion GmbH, Studio 88
Жанр: мультфильм, комедия, приключения, семейный
Год выпуска: 2012
Мировая премьера: 6 сентября 2012
Дата выхода DVD: 12 сентября 2013, «CP Дистрибуция»
Продолжительность: 01:13:54
Перевод: Профессиональный (многоголосый закадровый) [Лицензия]
Cубтитры: нет
Оригинальная аудиодорожка: английский-Режиссер: Уте фон Мюнчо-Поль, Сэндор Джесси / Ute von Munchow-Pohl, Sandor Jesse-Роли озвучивали: Катарина Тальбах, Константин фон Ящерофф, Анна Тальбах, Геральд Шаале, Сантьяго Зисмер, Монти Арнольд...-Описание: Главный герой мультфильма Ворона-проказница – Зок – черная ворона с желтым клювом. Он – главный герой серии детских книг, вышедших в 1996 году и разошедшихся по всему миру большими тиражами. Это первый полнометражный фильм с его участием.-Бонусы: Смотрите на DVD- -Качество: DVD5 R5
Формат: DVD-Video
Видео кодек: MPEG2
Аудио кодек: AC3
Видео: PAL 16:9 (720x576(0.579)) MPEG Video, 25,000 кадр/сек, 6008 Кбит/сек
Аудио #1: Russian (Dolby AC3, 6 ch) 448 Кбит/сек, 48,0 КГц
Аудио #2: English (Dolby AC3, 6 ch) 448 Кбит/сек, 48,0 КГц--

DVDInfo

Title: Vorona-prokaznica.2012.D.DVD5
Size: 4.04 Gb ( 4 239 966,00 KBytes ) - DVD-5
Enabled regions: 1, 2, 3, 4, 5, 6, 7, 8
VTS_01 :
Play Length: 00:00:05
Video: PAL 4:3 (720x576) VBR
Subtitles:
English
English
VTS_02 :
Play Length: 00:00:09
Video: PAL 16:9 (720x576) VBR, Auto Letterboxed
Audio:
Not specified (Dolby AC3, 2 ch)
Not specified (Dolby AC3, 2 ch)
Subtitles:
Not specified
VTS_03 :
Play Length: 00:02:33
Video: PAL 16:9 (720x576) VBR, Auto Letterboxed
Audio:
Not specified (Dolby AC3, 2 ch)
Not specified (Dolby AC3, 2 ch)
Subtitles:
Not specified
VTS_04 :
Play Length: 01:13:54
Video: PAL 16:9 (720x576) VBR, Auto Letterboxed
Audio:
Russian (Dolby AC3, 6 ch)
English (Dolby AC3, 6 ch)
VTS_05 :
Play Length: 00:01:58
Video: PAL 16:9 (720x576) VBR, Auto Letterboxed
Audio:
Not specified (Dolby AC3, 2 ch)
Not specified (Dolby AC3, 2 ch)
Subtitles:
Not specified
VTS_06 :
Play Length: 00:03:00
Video: PAL 16:9 (720x576) VBR, Auto Letterboxed
Audio:
Not specified (Dolby AC3, 2 ch)
Not specified (Dolby AC3, 2 ch)
Subtitles:
Not specified
* Menus Information *
VIDEO_TS Menu
Video:
PAL 16:9 (720x576) VBR
Auto Pan&Scan, Auto Letterboxed
English Language Unit :
Title Menu
VTS_01 Menu
Video:
PAL 16:9 (720x576) VBR
Auto Letterboxed
Audio:
Not specified (Dolby AC3, 2 ch)
English Language Unit :
Root Menu
VTS_02 Menu
Video:
PAL 4:3 (720x576) VBR
English Language Unit :
Root Menu
VTS_03 Menu
Video:
PAL 4:3 (720x576) VBR
English Language Unit :
Root Menu
VTS_04 Menu
Video:
PAL 4:3 (720x576) VBR
English Language Unit :
Root Menu
Chapter (PTT) Menu
VTS_05 Menu
Video:
PAL 4:3 (720x576) VBR
English Language Unit :
Root Menu
VTS_06 Menu
Video:
PAL 4:3 (720x576) VBR
English Language Unit :
Root Menu

MediaInfo

Общее
Полное имя : D:\Новинки 2014\Vorona-prokaznica.2012.D.DVD5\VIDEO_TS\VTS_04_2.VOB
Формат : MPEG-PS
Размер файла : 1024 Мбайт
Продолжительность : 20 м.
Режим общего битрейта : Переменный
Общий поток : 7044 Кбит/сек
Видео
Идентификатор : 224 (0xE0)
Формат : MPEG Video
Версия формата : Version 2
Профиль формата : Main@Main
Параметр BVOP формата : Да
Параметр матрицы формата : По умолчанию
Параметр GOP формата : M=3, N=12
Продолжительность : 20 м.
Вид битрейта : Переменный
Битрейт : 6008 Кбит/сек
Максимальный битрейт : 8500 Кбит/сек
Ширина : 720 пикселей
Высота : 576 пикселей
Соотношение сторон : 16:9
Частота кадров : 25,000 кадров/сек
Стандарт вещания : PAL
Цветовое пространство : YUV
Субдискретизация насыщенности : 4:2:0
Битовая глубина : 8 бит
Тип развёртки : Прогрессивная
Метод сжатия : С потерями
Бит/(Пиксели*Кадры) : 0.579
Временной код первого кадра : 00:20:25:09
Оригинал временного кода : Group of pictures header
Размер потока : 873 Мбайт (85%)
Аудио #1
Идентификатор : 189 (0xBD)-128 (0x80)
Формат : AC-3
Формат/Информация : Audio Coding 3
Расширение режима : CM (complete main)
Параметр Endianness формата : Big
Режим смешивания : DVD-Video
Продолжительность : 20 м.
Вид битрейта : Постоянный
Битрейт : 448 Кбит/сек
Каналы : 6 каналов
Расположение каналов : Front: L C R, Side: L R, LFE
Частота : 48,0 КГц
Битовая глубина : 16 бит
Метод сжатия : С потерями
Задержка видео : -480 мс.
Размер потока : 65,1 Мбайт (6%)
Аудио #2
Идентификатор : 189 (0xBD)-129 (0x81)
Формат : AC-3
Формат/Информация : Audio Coding 3
Расширение режима : CM (complete main)
Параметр Endianness формата : Big
Режим смешивания : DVD-Video
Продолжительность : 20 м.
Вид битрейта : Постоянный
Битрейт : 448 Кбит/сек
Каналы : 6 каналов
Расположение каналов : Front: L C R, Side: L R, LFE
Частота : 48,0 КГц
Битовая глубина : 16 бит
Метод сжатия : С потерями
Задержка видео : -480 мс.
Размер потока : 65,1 Мбайт (6%)

Скриншоты меню

Скриншоты мультфильма


-
-Раздача от группы:

_________________
Показать сообщения:    

Текущее время: Сегодня 09:49

Часовой пояс: GMT



Вы не можете начинать темы
Вы не можете отвечать на сообщения
Вы не можете редактировать свои сообщения
Вы не можете удалять свои сообщения
Вы не можете голосовать в опросах
Вы не можете прикреплять файлы к сообщениям
Вы не можете скачивать файлы