Важное объявление!
У Нас Все раздачи мультитрекерные, при нуле пиров в релизах, можете смело вставать на закачку!
 
Автор Сообщение

HUNTER

Стаж:
4 года 4 месяца
Сообщений:
56719

Репутация: 101

[+] [-]
Вне форума [Профиль] [ЛС]

| Все релизы мультфильма || BDRip 1080p, 8.61 GB |- P R E S E N T SВольт / Bolt-
Страна: США
Жанр: мультфильм, фантастика, приключения, семейный
Продолжительность: 01:36:22
Год выпуска: 2008
Перевод 1: Профессиональный (полное дублирование)
Перевод 2: Авторский (одноголосый закадровый) Владимир Королев
Субтитры: есть-Режиссёр: Байрон Ховард, Крис Уильямс / Byron Howard, Chris Williams
Роли озвучивали: Джон Траволта, Майли Сайрус, Сьюзи Эссман, Марк Уолтон, Малкольм МакДауэлл, Джеймс Липтон, Ник Свардсон, Жан-Поль Мано, Дэн Фогельман, Кэри Уолгрен, Хлоя Грейс Морец...
Роли дублировали: Владимир Вдовиченков, Мария Иващенко, Анжела Белянская, Леонид Барац, Владимир Майсурадзе, Александр Стефанцов, Ростислав Хаит, Камиль Ларин, Александр Демидов и др.- | | -Описание: Пес по кличке «Вольт» всю жизнь снимается в телевизионном сериале, где его герой - суперпес - спасает человечество, используя свои необычайные способности. Сам Вольт свято верит в собственную неуязвимость, невероятную силу, и умение летать. Когда же судьба забрасывает его в полный опасностей Большой Город, он все еще думает, что это - лишь очередной эпизод телесериала...-Доп. информация: BDRip 1080p сделан с Blu-Ray диска Bolt (2008) Blu-ray EUR 1080p AVC DD5.1-HDClub (Локализованный видеоряд).
Отдельное спасибо xfiles за подготовку русских и украинских субтитров.
-Сэмпл/Sample (98.8 MB, 1 минута)-Качество: BDRip 1080p
Формат: MKV
Видео: 1920x1080 (1.778:1), 23,976 fps, ~8496 kbps avg, 0.171 bit/pixel
Аудио #1: Русский, AC3 EX, 6 ch, 48 kHz, 640 kbps - Дубляж | BD EUR
Аудио #2: Русский, DTS / 5.1 / 48 kHz / 1509 kbps / 24 bit - AVO | Владимир Королев
Аудио #3: Украинский, AC3 EX, 6 ch, 48 kHz, 640 kbps - Дубляж | BD 3D CEE
Аудио #4: English, DTS-ES / 5.1 / 48 kHz / 1509 kbps / 24 bit - Original
Субтитры: Русские (полные, форсированные), Украинские (полные, форсированные), English (Full, SDH)
Навигация по главам: есть (16 именованных глав)

MediaInfo / x264Log

x264Log

raw [info]: 1920x1080p 1:1 @ 24000/1001 fps (cfr)x264 [info]: using SAR=1/1x264 [info]: using cpu capabilities: MMX2 SSE2Fast SSSE3 SSE4.2 AVX XOP FMA4 FMA3 LZCNT BMI1x264 [info]: profile High, level 4.1x264 [info]: frame I:1093 Avg QP:11.48 size:333243 PSNR Mean Y:52.63 U:56.97 V:56.96 Avg:53.61 Global:52.82x264 [info]: frame P:44536 Avg QP:13.32 size: 76186 PSNR Mean Y:49.83 U:52.99 V:53.04 Avg:50.60 Global:49.83x264 [info]: frame B:92996 Avg QP:15.26 size: 25622 PSNR Mean Y:49.37 U:52.62 V:52.67 Avg:50.16 Global:49.26x264 [info]: consecutive B-frames: 5.0% 5.1% 56.1% 11.5% 5.1% 15.4% 0.7% 0.2% 0.1% 0.2% 0.1% 0.5%x264 [info]: mb I I16..4: 8.2% 81.2% 10.6%x264 [info]: mb P I16..4: 3.3% 15.3% 2.5% P16..4: 31.7% 20.2% 7.5% 1.5% 0.1% skip:17.8%x264 [info]: mb B I16..4: 0.9% 2.5% 0.3% B16..8: 32.4% 13.3% 2.1% direct: 4.9% skip:43.5% L0:40.4% L1:48.3% BI:11.4%x264 [info]: 8x8 transform intra:71.7% inter:39.5%x264 [info]: coded y,uvDC,uvAC intra: 79.6% 88.6% 74.9% inter: 17.1% 17.5% 5.1%x264 [info]: i16 v,h,dc,p: 30% 13% 22% 35%x264 [info]: i8 v,h,dc,ddl,ddr,vr,hd,vl,hu: 13% 15% 21% 7% 8% 8% 9% 9% 12%x264 [info]: i4 v,h,dc,ddl,ddr,vr,hd,vl,hu: 18% 14% 31% 5% 8% 7% 7% 5% 7%x264 [info]: i8c dc,h,v,p: 49% 24% 15% 12%x264 [info]: Weighted P-Frames: Y:2.3% UV:1.8%x264 [info]: ref P L0: 67.2% 9.3% 14.8% 6.0% 2.7% 0.0%x264 [info]: ref B L0: 79.1% 17.0% 3.9%x264 [info]: ref B L1: 86.5% 13.5%x264 [info]: SSIM Mean Y:0.9920837 (21.015db)x264 [info]: PSNR Mean Y:49.540 U:52.772 V:52.821 Avg:50.328 Global:49.458 kb/s:8495.55encoded 138625 frames, 4.93 fps, 8495.55 kb/s
GeneralUnique ID : 240545658130013496697151506980039066258 (0xB4F76899E92BBEEB96215BAF407C8292)Complete name : Bolt.2008.Rus.BDRip.1080p.dfcbit.mkvFormat : MatroskaFormat version : Version 2File size : 8.61 GiBDuration : 1h 36mnOverall bit rate : 12.8 MbpsEncoded date : UTC 2014-04-05 04:42:50Writing application : mkvmerge v4.0.0 ('The Stars were mine') built on Jun 6 2010 16:18:42Writing library : libebml v1.0.0 + libmatroska v1.0.0
VideoID : 1Format : AVCFormat/Info : Advanced Video CodecFormat profile : High@L4.1Format settings, CABAC : YesFormat settings, ReFrames : 4 framesCodec ID : V_MPEG4/ISO/AVCDuration : 1h 36mnBit rate : 8 496 KbpsWidth : 1 920 pixelsHeight : 1 080 pixelsDisplay aspect ratio : 16:9Frame rate mode : ConstantFrame rate : 23.976 fpsColor space : YUVChroma subsampling : 4:2:0Bit depth : 8 bitsScan type : ProgressiveBits/(Pixel*Frame) : 0.171Stream size : 5.72 GiB (64%)Title : NTSC, 1920x1080 (1.778:1), BDRip 1080p - tRuAVC & Multfilmy [DFCbit]Writing library : x264 core 142 r2389kMod 956c8d8Encoding settings : cabac=1 / ref=4 / deblock=1:-2:-1 / analyse=0x3:0x133 / me=umh / subme=11 / psy=1 / fade_compensate=0.00 / psy_rd=0.63:0.00 / mixed_ref=1 / me_range=32 / chroma_me=1 / trellis=2 / 8x8dct=1 / cqm=0 / deadzone=21,11 / fast_pskip=0 / chroma_qp_offset=-2 / threads=12 / lookahead_threads=3 / sliced_threads=0 / nr=0 / decimate=1 / interlaced=0 / bluray_compat=0 / constrained_intra=0 / fgo=0 / bframes=11 / b_pyramid=2 / b_adapt=2 / b_bias=0 / direct=1 / weightb=1 / open_gop=0 / weightp=2 / keyint=250 / keyint_min=23 / scenecut=40 / intra_refresh=0 / rc_lookahead=70 / rc=2pass / mbtree=0 / bitrate=8496 / ratetol=1.0 / qcomp=0.81 / qpmin=0 / qpmax=69 / qpstep=4 / cplxblur=20.0 / qblur=0.5 / vbv_maxrate=50000 / vbv_bufsize=62500 / nal_hrd=none / filler=0 / ip_ratio=1.40 / pb_ratio=1.30 / aq=3:0.90Language : RussianDefault : YesForced : NoColor primaries : BT.709Transfer characteristics : BT.709Matrix coefficients : BT.709
Audio #1ID : 2Format : AC-3Format/Info : Audio Coding 3Mode extension : CM (complete main)Format settings, Endianness : BigCodec ID : A_AC3Duration : 1h 36mnBit rate mode : ConstantBit rate : 640 KbpsChannel(s) : 6 channelsChannel positions : Front: L C R, Side: L R, LFESampling rate : 48.0 KHzBit depth : 16 bitsCompression mode : LossyStream size : 441 MiB (5%)Title : AC3 EX, 6 ch, 48 kHz, 640 kbps - Дубляж | BD EURLanguage : RussianDefault : YesForced : No
Audio #2ID : 3Format : DTSFormat/Info : Digital Theater SystemsMode : 16Format settings, Endianness : BigCodec ID : A_DTSDuration : 1h 36mnBit rate mode : ConstantBit rate : 1 510 KbpsChannel(s) : 6 channelsChannel positions : Front: L C R, Side: L R, LFESampling rate : 48.0 KHzBit depth : 24 bitsCompression mode : LossyStream size : 1.02 GiB (12%)Title : DTS / 5.1 / 48 kHz / 1509 kbps / 24 bit - AVO | Владимир КоролевLanguage : RussianDefault : NoForced : No
Audio #3ID : 4Format : AC-3Format/Info : Audio Coding 3Mode extension : CM (complete main)Format settings, Endianness : BigCodec ID : A_AC3Duration : 1h 36mnBit rate mode : ConstantBit rate : 640 KbpsChannel(s) : 6 channelsChannel positions : Front: L C R, Side: L R, LFESampling rate : 48.0 KHzBit depth : 16 bitsCompression mode : LossyStream size : 441 MiB (5%)Title : AC3 EX, 6 ch, 48 kHz, 640 kbps - Дубляж | BD 3D CEELanguage : UkrainianDefault : NoForced : No
Audio #4ID : 5Format : DTSFormat/Info : Digital Theater SystemsFormat profile : ESMode : 16Format settings, Endianness : BigCodec ID : A_DTSDuration : 1h 36mnBit rate mode : ConstantBit rate : 1 509 KbpsChannel(s) : 6 channelsChannel positions : Front: L C R, Side: L R, LFESampling rate : 48.0 KHzBit depth : 24 bitsCompression mode : LossyStream size : 1.02 GiB (12%)Title : DTS-ES / 5.1 / 48 kHz / 1509 kbps / 24 bit - OriginalLanguage : EnglishDefault : NoForced : No
Text #1ID : 6Format : UTF-8Codec ID : S_TEXT/UTF8Codec ID/Info : UTF-8 Plain TextTitle : SRT, FullLanguage : RussianDefault : NoForced : No
Text #2ID : 7Format : UTF-8Codec ID : S_TEXT/UTF8Codec ID/Info : UTF-8 Plain TextTitle : SRT, ForcedLanguage : RussianDefault : NoForced : No
Text #3ID : 8Format : UTF-8Codec ID : S_TEXT/UTF8Codec ID/Info : UTF-8 Plain TextTitle : SRT, FullLanguage : UkrainianDefault : NoForced : No
Text #4ID : 9Format : UTF-8Codec ID : S_TEXT/UTF8Codec ID/Info : UTF-8 Plain TextTitle : SRT, ForcedLanguage : UkrainianDefault : NoForced : No
Text #5ID : 10Format : UTF-8Codec ID : S_TEXT/UTF8Codec ID/Info : UTF-8 Plain TextTitle : SRT, FullLanguage : EnglishDefault : NoForced : No
Text #6ID : 11Format : UTF-8Codec ID : S_TEXT/UTF8Codec ID/Info : UTF-8 Plain TextTitle : SRT, (SDH)Language : EnglishDefault : NoForced : No
Menu00:00:00.000 : ru:01. Начало00:02:31.651 : ru:02. 5 лет спустя00:11:00.660 : ru:03. Микрофон-пушка00:13:47.201 : ru:04. Защищая Пенни00:19:19.950 : ru:05. Неожиданный поворот00:24:18.874 : ru:06. Посылка пришла00:27:14.383 : ru:07. "Я знаю этого пса"00:29:48.703 : ru:08. Знакомство с Миттенами00:35:25.832 : ru:09. Дорожное путешествие00:42:09.569 : ru:10. Рино!00:51:41.974 : ru:11. Большой побег01:01:58.339 : ru:12. Как быть собакой01:08:16.008 : ru:13. "На расстоянии одной вафли"01:13:02.711 : ru:14. Соавторы01:18:53.061 : ru:15. Огонь!01:29:36.830 : ru:16. Финальные титры

Скриншоты

Локализация

--BDRip 1080p


Source Blu-Ray

Релиз от групп | and | -Данный релиз не будет воспроизводиться на бытовых плеерах не поддерживающих MKV и H.264Обсуждение релизов в AVC формате || Свежие AVC рипы

_________________
Показать сообщения:    

Текущее время: Сегодня 19:25

Часовой пояс: GMT



Вы не можете начинать темы
Вы не можете отвечать на сообщения
Вы не можете редактировать свои сообщения
Вы не можете удалять свои сообщения
Вы не можете голосовать в опросах
Вы не можете прикреплять файлы к сообщениям
Вы не можете скачивать файлы