Важное объявление!
У Нас Все раздачи мультитрекерные, при нуле пиров в релизах, можете смело вставать на закачку!
 
Автор Сообщение

HUNTER

Стаж:
4 года 4 месяца
Сообщений:
56848

Репутация: 101

[+] [-]
Вне форума [Профиль] [ЛС]

Волшебное рождество у Микки: Запертые снегом в мышином доме
Mickey's Magical Christmas: Snowed in at the House of Mouse
«It's snowed in at the House of Mouse!»
Страна: США
Жанр: мультфильм, комедия, приключения, семейный
Продолжительность: 01:02:24
Год выпуска: 2001-Перевод: Профессиональный (Дублированный) DUB
Перевод: Авторский (Одноголосый закадровый) Юрий Живов
Русские субтитры: есть
Режиссёр: Тони Крэйг, Роберт Ганнавей, Рик Шнайдер / Tony Craig, Roberts Gannaway, Rick Schneider-Роли озвучивали: Карлос Аласраки, Уэйн Оллвэйн, Тони Ансельмо, Джефф Беннетт, Джоди Бенсон, Робби Бенсон, Кори Бертон, Эдди Кэрролл, Пэт Кэрролл, Джон Клиз
Роли дублировали: Максим Сергеев, Константин Петров, Ксения Бржезовская, Олег Куликович, Андрей Тенетко-Описание: Когда из-за снежной бури все вынуждены остаться дома, Микки и гости его Мышиного Дома, включая Пуха, Поросенка, Бэлль, Белоснежку, Ариэль и многих других старых и новых друзей, из всех сил пытаются с помощью печенья и горячего шоколада развеселить Дональда и исправить его испорченное рождественское настроение.
Веселье начинается, когда Минни предлагает посмотреть любимые праздничные фильмы, и все предаются приятным воспоминаниям, которые волшебным образом создают рождественскую атмосферу вокруг — даже сварливый Дональд начинает веселиться и, в конце концов, становится настоящей звездой вечера.-В состав компиляции входят мультфильмы:
1. Дональд на льду / Donald on Ice (1999 г.)
2. Рождественская ёлка Плуто / Pluto's Christmas Tree (1952 г.)
3. Щелкунчик / The Nutcracker (1999 г.)
4. Рождественский хаос Микки / Mickey's Christmas Chaos (2000 г.)
5. Рождественская история Микки / Mickey's Christmas Carol (1983 г.)-Релиз: | | -• Большое спасибо ZoomBieprodigy за покупку WEB-DL
• Работа с WEB-DL и звуком-Azureus--Качество: WEB-DLRip
Формат: AVI
Видео: 720x544 (1.32:1), 23,976 fps, XviD 66 ~2 266 kbps avg, 0.24 bit/pixel
Аудио: 48 kHz, AC3 Dolby Digital, 2/0 (L,R) ch, ~192 kbps |DUB|
Аудио: 48 kHz, AC3 Dolby Digital, 3/2 (L,C,R,l,r) + LFE ch, ~448 kbps avg |AVO|
Аудио: 48 kHz, AC3 Dolby Digital, 3/2 (L,C,R,l,r) + LFE ch, ~448 kbps avg |ENG|
Субтитры: Russian, English [srt]

MI


General
Complete name : D:\incarcare\rip gata\Mickey's Magical Christmas Snowed in at the House of Mouse.2001.WEB-DLRip\Mickey's Magical Christmas Snowed in at the House of Mouse.2001.WEB-DLRip.avi
Format : AVI
Format/Info : Audio Video Interleave
File size : 1.46 GiB
Duration : 1h 2mn
Overall bit rate : 3 361 Kbps
Writing application : VirtualDubMod 1.5.10.2 (build 2540/release)
Writing library : VirtualDubMod build 2540/release
Video
ID : 0
Format : MPEG-4 Visual
Format profile : Advanced Simple@L5
Format settings, BVOP : 1
Format settings, QPel : No
Format settings, GMC : No warppoints
Format settings, Matrix : Default (MPEG)
Codec ID : XVID
Codec ID/Hint : XviD
Duration : 1h 2mn
Bit rate : 2 266 Kbps
Width : 720 pixels
Height : 544 pixels
Display aspect ratio : 4:3
Frame rate : 23.976 fps
Color space : YUV
Chroma subsampling : 4:2:0
Bit depth : 8 bits
Scan type : Progressive
Compression mode : Lossy
Bits/(Pixel*Frame) : 0.241
Stream size : 1 011 MiB (67%)
Writing library : XviD 66
Audio #1
ID : 1
Format : AC-3
Format/Info : Audio Coding 3
Format profile : Dolby Digital
Mode extension : CM (complete main)
Format settings, Endianness : Big
Codec ID : 2000
Duration : 1h 1mn
Bit rate mode : Constant
Bit rate : 192 Kbps
Channel(s) : 2 channels
Channel positions : Front: L R
Sampling rate : 48.0 KHz
Compression mode : Lossy
Stream size : 84.8 MiB (6%)
Alignment : Split accross interleaves
Interleave, duration : 42 ms (1.01 video frame)
Interleave, preload duratio : 500 ms
Audio #2
ID : 2
Format : AC-3
Format/Info : Audio Coding 3
Mode extension : CM (complete main)
Format settings, Endianness : Big
Codec ID : 2000
Duration : 1h 1mn
Bit rate mode : Constant
Bit rate : 448 Kbps
Channel(s) : 6 channels
Channel positions : Front: L C R, Side: L R, LFE
Sampling rate : 48.0 KHz
Compression mode : Lossy
Stream size : 198 MiB (13%)
Alignment : Split accross interleaves
Interleave, duration : 42 ms (1.01 video frame)
Interleave, preload duratio : 500 ms
Audio #3
ID : 3
Format : AC-3
Format/Info : Audio Coding 3
Mode extension : CM (complete main)
Format settings, Endianness : Big
Codec ID : 2000
Duration : 1h 1mn
Bit rate mode : Constant
Bit rate : 448 Kbps
Channel(s) : 6 channels
Channel positions : Front: L C R, Side: L R, LFE
Sampling rate : 48.0 KHz
Compression mode : Lossy
Stream size : 198 MiB (13%)
Alignment : Split accross interleaves
Interleave, duration : 42 ms (1.01 video frame)
Interleave, preload duratio : 500 ms

Скриншоты


_________________
Показать сообщения:    

Текущее время: Сегодня 22:53

Часовой пояс: GMT



Вы не можете начинать темы
Вы не можете отвечать на сообщения
Вы не можете редактировать свои сообщения
Вы не можете удалять свои сообщения
Вы не можете голосовать в опросах
Вы не можете прикреплять файлы к сообщениям
Вы не можете скачивать файлы
Наши партнеры: интернет магазин Ивановского трикотажа textilla.ru