Важное объявление!
У Нас Все раздачи мультитрекерные, при нуле пиров в релизах, можете смело вставать на закачку!
 
Автор Сообщение

HUNTER

Стаж:
4 года 4 месяца
Сообщений:
56783

Репутация: 101

[+] [-]
Вне форума [Профиль] [ЛС]

Волшебное рождество у Микки: Запертые снегом в мышином доме
Mickey's Magical Christmas: Snowed in at the House of Mouse
«It's snowed in at the House of Mouse!»
Год выпуска: 2001
Страна: США
Жанр: мультфильм, комедия, приключения, семейный
Продолжительность: 01:02:24
Перевод:
Профессиональный (Дублированный)
Авторский (Одноголосый закадровый) - Юрий Живов
русские субтитры: есть-Режиссёр: Тони Крэйг : Tony Craig, Роберт Ганнавей : Roberts Gannaway, Рик Шнайдер : Rick Schneider-Роли озвучивали: Карлос Аласраки, Уэйн Оллвэйн, Тони Ансельмо, Джефф Беннетт, Джоди Бенсон, Робби Бенсон, Кори Бертон, Эдди Кэрролл, Пэт Кэрролл, Джон Клиз
Роли дублировали: Максим Сергеев, Константин Петров, Ксения Бржезовская, Олег Куликович, Андрей Тенетко-Описание: Когда из-за снежной бури все вынуждены остаться дома, Микки и гости его Мышиного Дома, включая Пуха, Поросенка, Бэлль, Белоснежку, Ариэль и многих других старых и новых друзей, из всех сил пытаются с помощью печенья и горячего шоколада развеселить Дональда и исправить его испорченное рождественское настроение.
Веселье начинается, когда Минни предлагает посмотреть любимые праздничные фильмы, и все предаются приятным воспоминаниям, которые волшебным образом создают рождественскую атмосферу вокруг — даже сварливый Дональд начинает веселиться и, в конце концов, становится настоящей звездой вечера.-В состав компиляции входят мультфильмы:
1. Дональд на льду / Donald on Ice (1999 г.)
2. Рождественская ёлка Плуто / Pluto's Christmas Tree (1952 г.)
3. Щелкунчик / The Nutcracker (1999 г.)
4. Рождественский хаос Микки / Mickey's Christmas Chaos (2000 г.)
5. Рождественская история Микки / Mickey's Christmas Carol (1983 г.)- релиз: -- Большое спасибо ZoomBieprodigy за покупку WEB-DL
- Работа с WEB-DL и звуком -Azureus--Качество: WEB-DL 720p
Формат: MKV
Видео кодек: AVC
Аудио кодек: AC3
Видео: 960x720 , 23,976 fps, ~3907 kbps avg, 0.236 bit/pixel
Аудио #1: [RUS] 48 kHz, AC3 Dolby Digital, 2/0 (L,R) Surround Encoded ch, ~192 kbps - DUB
Аудио #2: [RUS] 48 kHz, AC3 Dolby Digital, 3/2 (L,C,R,l,r) + LFE ch, ~448 kbps avg - AVO
Аудио #3: [ENG] 48 kHz, AC3 Dolby Digital, 3/2 (L,C,R,l,r) + LFE ch, ~448 kbps avg
субтитры: русские, английские
навигация по главам: 12 глав (именные)

MediaInfo

Общее
Уникальный идентификатор : 178086509491293988404709647524329253254 (0x85FA36D15BF72365B170E1DCB3B16986)
Полное имя : D:\Im\Волшебное рождество у Микки\Mickey's Magical Christmas Snowed in at the House of Mouse.2001.WEB-DL 720p.mkv
Формат : Matroska
Версия формата : Version 4 / Version 2
Размер файла : 2,17 Гбайт
Продолжительность : 1 ч. 2 м.
Общий поток : 4986 Кбит/сек
Название фильма : Mickey's Magical Christmas: Snowed in at the House of Mouse.2001.WEB-DL 720p -Azureus-
Дата кодирования : UTC 2015-06-09 10:23:10
Программа кодирования : mkvmerge v7.9.0 ('Birds') 32bit
Библиотека кодирования : libebml v1.3.1 + libmatroska v1.4.2
DURATION : 00:58:49.600000000
NUMBER_OF_FRAMES : 577
NUMBER_OF_BYTES : 21292
_STATISTICS_WRITING_APP : mkvmerge v7.9.0 ('Birds') 32bit
_STATISTICS_WRITING_DATE_UTC : 2015-06-09 10:23:10
_STATISTICS_TAGS : BPS DURATION NUMBER_OF_FRAMES NUMBER_OF_BYTES
Видео
Идентификатор : 1
Формат : AVC
Формат/Информация : Advanced Video Codec
Профиль формата : Main@L3.1
Параметр CABAC формата : Нет
Параметр ReFrames формата : 2 кадра
Параметр GOP формата : N=1
Идентификатор кодека : V_MPEG4/ISO/AVC
Продолжительность : 1 ч. 2 м.
Битрейт : 3798 Кбит/сек
Ширина : 960 пикселей
Высота : 720 пикселей
Соотношение сторон : 4:3
Частота кадров : 23,976 кадра/сек
Цветовое пространство : YUV
Субдискретизация насыщенности : 4:2:0
Битовая глубина : 8 бит
Тип развёртки : Прогрессивная
Бит/(Пиксели*Кадры) : 0.229
Размер потока : 1,66 Гбайт (76%)
Язык : English
Default : Да
Forced : Нет
Основные цвета : BT.709-5, BT.1361, IEC 61966-2-4, SMPTE RP177
Характеристики трансфера : BT.709-5, BT.1361
Коэффициенты матрицы : BT.709-5, BT.1361, IEC 61966-2-4 709, SMPTE RP177
Аудио #1
Идентификатор : 2
Формат : AC-3
Формат/Информация : Audio Coding 3
Профиль формата : Dolby Digital
Расширение режима : CM (complete main)
Идентификатор кодека : A_AC3
Продолжительность : 1 ч. 2 м.
Вид битрейта : Постоянный
Битрейт : 192 Кбит/сек
Каналы : 2 канала
Расположение каналов : Front: L R
Частота : 48,0 КГц
Битовая глубина : 16 бит
Метод сжатия : С потерями
Размер потока : 85,7 Мбайт (4%)
Заголовок : DUB
Язык : Russian
Default : Да
Forced : Нет
Аудио #2
Идентификатор : 3
Формат : AC-3
Формат/Информация : Audio Coding 3
Расширение режима : CM (complete main)
Идентификатор кодека : A_AC3
Продолжительность : 1 ч. 2 м.
Вид битрейта : Постоянный
Битрейт : 448 Кбит/сек
Каналы : 6 каналов
Расположение каналов : Front: L C R, Side: L R, LFE
Частота : 48,0 КГц
Битовая глубина : 16 бит
Метод сжатия : С потерями
Размер потока : 200 Мбайт (9%)
Заголовок : AVO - Ю.Живов
Язык : Russian
Default : Нет
Forced : Нет
Аудио #3
Идентификатор : 4
Формат : AC-3
Формат/Информация : Audio Coding 3
Расширение режима : CM (complete main)
Идентификатор кодека : A_AC3
Продолжительность : 1 ч. 2 м.
Вид битрейта : Постоянный
Битрейт : 448 Кбит/сек
Каналы : 6 каналов
Расположение каналов : Front: L C R, Side: L R, LFE
Частота : 48,0 КГц
Битовая глубина : 16 бит
Метод сжатия : С потерями
Размер потока : 200 Мбайт (9%)
Заголовок : ENG
Язык : English
Default : Нет
Forced : Нет
Текст #1
Идентификатор : 5
Формат : UTF-8
Идентификатор кодека : S_TEXT/UTF8
Идентификатор кодека/Информация : UTF-8 Plain Text
Заголовок : Rus Sub
Язык : Russian
Default : Нет
Forced : Нет
Текст #2
Идентификатор : 6
Формат : UTF-8
Идентификатор кодека : S_TEXT/UTF8
Идентификатор кодека/Информация : UTF-8 Plain Text
Заголовок : Eng Sub
Язык : English
Default : Нет
Forced : Нет
Меню
00:00:00.000 : en:Main Titles
00:02:13.000 : en:Donald On Ice
00:08:05.000 : en:Yuletide Wishes
00:10:17.000 : en:Pluto And The Christmas Tree
00:16:21.000 : en:Thankful For...
00:19:16.000 : en:The Nutcracker
00:24:25.000 : en:The Mouse King
00:31:03.000 : en:Mickey's Wish
00:33:58.000 : en:Scrooge McDuck
00:43:49.000 : en:Fezzywig's
00:53:57.000 : en:A New Scrooge
00:57:35.000 : en:"The Best Christmas Of All"
____________________________________________
Стою на раздаче до 5 дней.
Просьба скачавшим как можно дольше не покидать раздачу!
ВСЕМ ПРИЯТНОГО ПРОСМОТРА!_________________________________________

_________________
Показать сообщения:    

Текущее время: Сегодня 19:55

Часовой пояс: GMT



Вы не можете начинать темы
Вы не можете отвечать на сообщения
Вы не можете редактировать свои сообщения
Вы не можете удалять свои сообщения
Вы не можете голосовать в опросах
Вы не можете прикреплять файлы к сообщениям
Вы не можете скачивать файлы