Важное объявление!
У Нас Все раздачи мультитрекерные, при нуле пиров в релизах, можете смело вставать на закачку!
 
Автор Сообщение

HUNTER

Стаж:
4 года 4 месяца
Сообщений:
56842

Репутация: 101

[+] [-]
Вне форума [Профиль] [ЛС]

Одно волшебное Рождество / One Magic Christmas
Страна: США, Канада
Студия: Walt Disney Pictures
Жанр: рождественская сказка, драма
Год выпуска: 1985
Продолжительность: 1:28:54
Перевод: Любительский (одноголосый закадровый) — Григорий Войнер
Оригинальная аудиодорожка: на английском языке
Cубтитры: на русском языке
Режиссер: Филлип Борсос / Phillip Borsos
В ролях:
  • Мэри Стинберген — Джинни Хэнкс Грейнджер
  • Гэри Басараба — Джэк Грейнджер
  • Гарри Дин Стэнтон — Гидеон
  • Артур Хилл — Калеб Грейнджер
  • Элизабет Арнуа — Эбби Грейнджер
    Описание: Джинни Грейнджер совсем утратила дух Рождества. Тяжелая работа, рутина, бедность, усталость - все это не способствует хорошему настроению. А тут еще безработный муж хочет истратить последние семейные сбережения на рождественские подарки детям. Но в Рождество происходят самые удивительные истории. И вот в городе появляется рождественский ангел. Не вполне обычный, без крыльев, зато в шляпе и длинном плаще. Он когда-то был человеком, спас тонущего мальчика, но сам утонул, потому что не умел плавать. И теперь раз в год он появляется где-нибудь на Земле как ангел, чтобы лишь одному единственному человеку попытаться вернуть веру в Рождество. И на этот раз его избранница — Джинни Грейнджер. Не простые, трагические испытания ждут ее на пути, но вера в Рождество и в доброту непременно вернется.
    Режиссер поставил фильм по собственному сценарию. Одна из лучших современных рождественских сказок для детей и взрослых.
    Тип релиза: WEB-DL 1080p
    Контейнер: MKV
    Сэмпл: 45 Мб
    Видео: 1916x1048p (1.85:1), 23.976 fps, MPEG-4 AVC (H.264), 5185 kbps
    Аудио 1 (RUS): AC3, 2.0 ch (L,R), 48 kHz, 192 kbps (взято из 3334554, спасибо Sirinstudi)
    Аудио 2 (ENG): AC3, Dolby Digital 5.1, 48 kHz, 384 kbps
    Формат субтитров: softsub (SRT) (взято из 3334554, спасибо Sirinstudi)

    MediaInfo

    General
    Unique ID : 183923880209497035514083215794646771739 (0x8A5E736A2425711EACC18CDF8747681B)
    Complete name : One.Magic.Christmas.1985.1080p.WEB-DL.h264.mkv
    Format : Matroska
    Format version : Version 4 / Version 2
    File size : 3.65 GiB
    Duration : 1h 28mn
    Overall bit rate : 5 877 Kbps
    Encoded date : UTC 2015-01-16 21:02:51
    Writing application : mkvmerge v7.4.0 ('Circles') 64bit built on Dec 12 2014 12:19:56
    Writing library : libebml v1.3.0 + libmatroska v1.4.1
    DURATION : 01:24:57.400000000
    NUMBER_OF_FRAMES : 758
    NUMBER_OF_BYTES : 51783
    _STATISTICS_WRITING_APP : mkvmerge v7.4.0 ('Circles') 64bit built on Dec 12 2014 12:19:56
    _STATISTICS_WRITING_DATE_UTC : 2015-01-16 21:02:51
    _STATISTICS_TAGS : BPS DURATION NUMBER_OF_FRAMES NUMBER_OF_BYTES
    Video
    ID : 1
    Format : AVC
    Format/Info : Advanced Video Codec
    Format profile : High@L4.0
    Format settings, CABAC : Yes
    Format settings, ReFrames : 4 frames
    Format settings, GOP : N=2
    Codec ID : V_MPEG4/ISO/AVC
    Duration : 1h 28mn
    Bit rate : 5 185 Kbps
    Width : 1 916 pixels
    Height : 1 048 pixels
    Display aspect ratio : 1.85:1
    Frame rate mode : Constant
    Frame rate : 23.976 fps
    Color space : YUV
    Chroma subsampling : 4:2:0
    Bit depth : 8 bits
    Scan type : Progressive
    Bits/(Pixel*Frame) : 0.108
    Stream size : 3.22 GiB (88%)
    Default : Yes
    Forced : No
    Color primaries : BT.709
    Transfer characteristics : BT.709
    Matrix coefficients : BT.709
    Audio #1
    ID : 2
    Format : AC-3
    Format/Info : Audio Coding 3
    Mode extension : CM (complete main)
    Format settings, Endianness : Big
    Codec ID : A_AC3
    Duration : 1h 28mn
    Bit rate mode : Constant
    Bit rate : 192 Kbps
    Channel(s) : 2 channels
    Channel positions : Front: L R
    Sampling rate : 48.0 KHz
    Bit depth : 16 bits
    Compression mode : Lossy
    Stream size : 122 MiB (3%)
    Title : RUS - G.Voyner
    Language : Russian
    Default : Yes
    Forced : No
    Audio #2
    ID : 3
    Format : AC-3
    Format/Info : Audio Coding 3
    Mode extension : CM (complete main)
    Format settings, Endianness : Big
    Codec ID : A_AC3
    Duration : 1h 28mn
    Bit rate mode : Constant
    Bit rate : 384 Kbps
    Channel(s) : 6 channels
    Channel positions : Front: L C R, Side: L R, LFE
    Sampling rate : 48.0 KHz
    Bit depth : 16 bits
    Compression mode : Lossy
    Stream size : 244 MiB (7%)
    Title : ENG (Dolby Digital 5.1)
    Language : English
    Default : No
    Forced : No
    Text
    ID : 4
    Format : UTF-8
    Codec ID : S_TEXT/UTF8
    Codec ID/Info : UTF-8 Plain Text
    Language : Russian
    Default : No
    Forced : No
    Menu
    00:04:00.000 : en:00:04
    00:08:00.000 : en:00:08
    00:12:00.000 : en:00:12
    00:16:00.000 : en:00:16
    00:20:00.000 : en:00:20
    00:24:00.000 : en:00:24
    00:28:00.000 : en:00:28
    00:32:00.000 : en:00:32
    00:36:00.000 : en:00:36
    00:40:00.000 : en:00:40
    00:44:00.000 : en:00:44
    00:48:00.000 : en:00:48
    00:52:00.000 : en:00:52
    00:56:00.000 : en:00:56
    01:00:00.000 : en:01:00
    01:04:00.000 : en:01:04
    01:08:00.000 : en:01:08
    01:12:00.000 : en:01:12
    01:16:00.000 : en:01:16
    01:20:00.000 : en:01:20
    01:24:00.000 : en:01:24

  • _________________
    Показать сообщения:    

    Текущее время: Сегодня 10:17

    Часовой пояс: GMT



    Вы не можете начинать темы
    Вы не можете отвечать на сообщения
    Вы не можете редактировать свои сообщения
    Вы не можете удалять свои сообщения
    Вы не можете голосовать в опросах
    Вы не можете прикреплять файлы к сообщениям
    Вы не можете скачивать файлы