Важное объявление!
У Нас Все раздачи мультитрекерные, при нуле пиров в релизах, можете смело вставать на закачку!
 
Автор Сообщение

HUNTER

Стаж:
4 года 4 месяца
Сообщений:
56749

Репутация: 101

[+] [-]
Вне форума [Профиль] [ЛС]

Волна любви
Luv Wave | ラヴ ウェーブ

Год выпуска :2000
Страна : Япония
Жанр: хентай
Продолжительность : 30 мин.
Кол-во эпизодов : 1-3 из 3
Студия : Pink Pineapple
Режиссёр : Канадзава Кацума/Kanazawa Katsuma/金澤勝眞-Субтитры : Присутствуют(RUS - внешние,подключаемые;SRT[Ozorkin])
Перевод : Субтитры
Цензура : Отсутствует-Описание : Мир, контролируемый компьютерной сетью BC 2039. В этом, контролируемом компьютерами мире насилие и наркотики подчинили человеческое общество.
Каору отвечает на запрос супер-киборга Элис. Элис ломается и становится неконтролируемой…2039г. н.э.. Расследуя дело, связанное с кибер-наркотиком Девятое Небо, сестре Каору Мамору удалось получить доступ к Тени – частным солдатам компании Digital Demands Inc…… Все тайны открываются в финале.-Качество : DVDRip
Формат : MKV
Видео : AVC, 640x480 (4:3), ~ 1105 kbps, ~ 29.970 fps
Аудио: JAP - Vorbis, 48 kHz, 2ch, ~ 128 kbps-Релиз от: -

MediaInfo

General
Format : Matroska
File size : 247 MiB
Duration : 27mn 29s
Overall bit rate : 1 258 Kbps
Encoded date : UTC 2009-07-14 04:44:12
Writing application : mkvmerge v2.9.5 ('Tu es le seul') built on Jun 7 2009 11:07:07
Writing library : libebml v0.7.7 + libmatroska v0.8.1
Video
ID : 1
Format : AVC
Format/Info : Advanced Video Codec
Format profile : [url=mailto:High@L5.1]High@L5.1[/url]
Format settings, CABAC : Yes
Format settings, ReFrames : 2 frames
Muxing mode : Container profile=Unknown@5.1
Codec ID : V_MPEG4/ISO/AVC
Duration : 27mn 29s
Bit rate : 1 105 Kbps
Nominal bit rate : 1 375 Kbps
Width : 640 pixels
Height : 480 pixels
Display aspect ratio : 4:3
Frame rate : 29.970 fps
Color space : YUV
Chroma subsampling : 4:2:0
Bit depth : 8 bits
Scan type : Progressive
Bits/(Pixel*Frame) : 0.120
Stream size : 217 MiB (88%)
Writing library : x264 core 47 svn-523M
Encoding settings : cabac=1 / ref=1 / deblock=1:0:0 / analyse=0x3:0x133 / me=hex / subme=5 / brdo=0 / mixed_ref=0 / me_range=16 / chroma_me=1 / trellis=1 / 8x8dct=1 / cqm=0 / chroma_qp_offset=0 / slices=1 / nr=0 / decimate=1 / bframes=2 / b_pyramid=0 / b_adapt=1 / b_bias=0 / direct=2 / wpredb=1 / bime=0 / keyint=250 / keyint_min=25 / scenecut=40 / rc=2pass / bitrate=1375 / ratetol=1.0 / rceq='blurCplx^(1-qComp)' / qcomp=0.60 / qpmin=10 / qpmax=51 / qpstep=4 / cplxblur=20.0 / qblur=0.5 / ip_ratio=1.40 / pb_ratio=1.30
Language : English
Audio
ID : 2
Format : Vorbis
Format settings, Floor : 1
Codec ID : A_VORBIS
Duration : 27mn 29s
Bit rate mode : Constant
Bit rate : 128 Kbps
Channel(s) : 2 channels
Sampling rate : 48.0 KHz
Stream size : 25.2 MiB (10%)
Writing library : libVorbis 1.0.1 (UTC 2003-09-09)
Language : Japanese

Список эпизодов

1)Connect
2)Protocol
3)Necross

Скриншоты:

-

_________________
Показать сообщения:    

Текущее время: Сегодня 01:29

Часовой пояс: GMT



Вы не можете начинать темы
Вы не можете отвечать на сообщения
Вы не можете редактировать свои сообщения
Вы не можете удалять свои сообщения
Вы не можете голосовать в опросах
Вы не можете прикреплять файлы к сообщениям
Вы не можете скачивать файлы