Важное объявление!
У Нас Все раздачи мультитрекерные, при нуле пиров в релизах, можете смело вставать на закачку!
 
Автор Сообщение

HUNTER

Стаж:
4 года 4 месяца
Сообщений:
56822

Репутация: 101

[+] [-]
Вне форума [Профиль] [ЛС]

Волкодав
Страна: Россия
Жанр: фэнтези, боевик, приключения
Год выпуска: 2006
Продолжительность: 02:21:29
-
Перевод: Не требуется
Cубтитры: английские
-
Режиссер: Николай Лебедев
В ролях: Александр Бухаров, Оксана Акиньшина, Александр Домогаров, Игорь Петренко, Юозас Будрайтис, Резо Эсадзе, Артем Семакин, Наталья Варлей, Татьяна Лютаева, Анатолий Белый
-
Описание: Он был обречен на гибель, но выжил, чтобы отомстить за истребление своего рода. Последний человек из племени Серых Псов стал могучим воином, называющим себя Волкодав. Избежав смерти в подземных рудниках, Волкодав пускается в путь в сопровождении своего спутника, Нелетучего Мыша. Волкодав одержим желанием покарать Людоеда, уничтожившего деревню Серых Псов. Добравшись до замка заклятого врага, Волкодав жестоко расправляется с Людоедом. Там же он освобождает двух пленников, мудреца Тилорна и рабыню Ниилит. Вместе с ними Волкодав попадает в город Галирад, переживающий смутные времена. Кнес Галирада, стремясь спасти город от разорения, сватает свою дочь Елень за молодого воина Винитара, обещающего защиту Галираду. Юной кнесинке предстоит дальняя дорога в земли будущего мужа. Она просит Волкодава стать ее телохранителем в опасном путешествии. Согласившись служить кнесинке, Волкодав оказывается втянутым в водоворот таинственных событий, проливающих свет на истинную цель поездки...
-

-
Сэмпл: https://www.sendspace.com/file/oqx8x5
-
Тип релиза: BDRip 720p
Контейнер: MKV
Видео: 1280x546p (2.35:1), 23.976 fps, 5 232 Kbps
Аудио: русский / AC3 / 5.1 / 48 kHz / 640 Kbps / 16 bit || RUS
Формат субтитров: softsub (SRT)
Главы: есть

Доп. информация

Скачано с Кинозала, рип от DON (релиз HDCLUB) Авторам спасибо.

MediaInfo

General
Unique ID : 216428753744018651240883541224529465663 (0xA2D2A9698281BACFAA4C789FE11E113F)
Complete name : C:\Users\ALEX\Downloads\Фильмы\HD\Волкодав из рода Серых Псов.2006.BDRip.720p.Rus.Sub.Chpt.mkv
Format : Matroska
Format version : Version 4 / Version 2
File size : 5.94 GiB
Duration : 2h 21mn
Overall bit rate : 5 992 Kbps
Encoded date : UTC 2014-10-15 13:13:14
Writing application : mkvmerge v6.6.0 ('The Edge Of The In Between') built on Dec 1 2013 17:55:00
Writing library : libebml v1.3.0 + libmatroska v1.4.1
Video
ID : 1
Format : AVC
Format/Info : Advanced Video Codec
Format profile : High@L4.1
Format settings, CABAC : Yes
Format settings, ReFrames : 9 frames
Codec ID : V_MPEG4/ISO/AVC
Duration : 2h 21mn
Bit rate : 5 232 Kbps
Width : 1 280 pixels
Height : 546 pixels
Display aspect ratio : 2.35:1
Frame rate mode : Constant
Frame rate : 23.976 fps
Color space : YUV
Chroma subsampling : 4:2:0
Bit depth : 8 bits
Scan type : Progressive
Bits/(Pixel*Frame) : 0.312
Stream size : 5.19 GiB (87%)
Title : Rip by DON (HDCLUB)
Writing library : x264 core 120 r2164 da19765
Encoding settings : cabac=1 / ref=9 / deblock=1:-3:-3 / analyse=0x3:0x133 / me=umh / subme=11 / psy=1 / psy_rd=1.05:0.05 / mixed_ref=1 / me_range=24 / chroma_me=1 / trellis=2 / 8x8dct=1 / cqm=0 / deadzone=21,11 / fast_pskip=0 / chroma_qp_offset=-3 / threads=12 / sliced_threads=0 / nr=0 / decimate=0 / interlaced=0 / bluray_compat=0 / constrained_intra=0 / bframes=7 / b_pyramid=2 / b_adapt=2 / b_bias=0 / direct=3 / weightb=1 / open_gop=0 / weightp=2 / keyint=250 / keyint_min=23 / scenecut=40 / intra_refresh=0 / rc=crf / mbtree=0 / crf=17.0 / qcomp=0.60 / qpmin=0 / qpmax=69 / qpstep=4 / ip_ratio=1.40 / pb_ratio=1.30 / aq=1:0.80
Language : English
Default : Yes
Forced : No
Audio
ID : 2
Format : AC-3
Format/Info : Audio Coding 3
Mode extension : CM (complete main)
Format settings, Endianness : Big
Codec ID : A_AC3
Duration : 2h 21mn
Bit rate mode : Constant
Bit rate : 640 Kbps
Channel(s) : 6 channels
Channel positions : Front: L C R, Side: L R, LFE
Sampling rate : 48.0 KHz
Bit depth : 16 bits
Compression mode : Lossy
Stream size : 650 MiB (11%)
Title : Original
Language : Russian
Default : Yes
Forced : No
Text
ID : 3
Format : UTF-8
Codec ID : S_TEXT/UTF8
Codec ID/Info : UTF-8 Plain Text
Title : Full
Language : English
Default : No
Forced : No
Menu
00:00:00.000 : en:00:00:00.000
00:07:17.854 : en:00:07:17.854
00:11:49.375 : en:00:11:49.375
00:14:35.166 : en:00:14:35.166
00:19:08.230 : en:00:19:08.230
00:24:34.890 : en:00:24:34.890
00:30:20.027 : en:00:30:20.027
00:37:31.040 : en:00:37:31.040
00:45:22.470 : en:00:45:22.470
00:50:50.506 : en:00:50:50.506
00:54:43.447 : en:00:54:43.447
01:04:55.183 : en:01:04:55.183
01:14:08.402 : en:01:14:08.402
01:24:05.582 : en:01:24:05.582
01:29:35.328 : en:01:29:35.328
01:40:03.456 : en:01:40:03.456
01:46:16.328 : en:01:46:16.328
01:54:54.805 : en:01:54:54.805
02:00:23.299 : en:02:00:23.299
02:08:56.479 : en:02:08:56.479
02:15:40.132 : en:02:15:40.132

Скриншоты


_________________
Показать сообщения:    

Текущее время: Сегодня 02:32

Часовой пояс: GMT



Вы не можете начинать темы
Вы не можете отвечать на сообщения
Вы не можете редактировать свои сообщения
Вы не можете удалять свои сообщения
Вы не можете голосовать в опросах
Вы не можете прикреплять файлы к сообщениям
Вы не можете скачивать файлы