Важное объявление!
У Нас Все раздачи мультитрекерные, при нуле пиров в релизах, можете смело вставать на закачку!
 
Автор Сообщение

HUNTER

Стаж:
4 года 4 месяца
Сообщений:
56755

Репутация: 101

[+] [-]
Вне форума [Профиль] [ЛС]

Воин.com-«Он убегал от армии, а нашел... судьбу!»-
Год выпуска: 2012
Страна: Россия
Жанр: комедия
Продолжительность: 01:22:46
Перевод: Оригинал-Режиссер: Елена Бычкова
Сценарий: Дмитрий Лемешев
Продюсер: Владимир Малышев, Андрей Малышев
Оператор: Вадим Алисов, Артём Тарасенков
Композитор: Дмитрий Селипанов-В ролях: Владимир Киммельман (Игнат), Тимофей Трибунцев , Евгения Дмитриева (мать Игната), Альберт Филозов , Евгений Дмитриев , Александра Рещикова , Ольга Аксенова (Катя Куприна), Владимир Майзингер (врач), Полина Одинцова
-Описание: Игнат стал выпивать, за что его и отчисляют из института. Он возвращается в родной уездный город, где нечем заняться, все умирают со скуки. Там есть только один неженатый мужчина — местный военком. Игнат когда-то ему насолил, и военком пообещал отправить его в армию. Сначала Игнат бегает от военкома, а потом вдруг у них завязывается дружба, военком становится парню вместо отца, которого у Игната не было… Потом Игнат решает все же пойти в армию, потому что делать ему решительно нечего, но в последний момент ему становится страшно, и он уезжает восстанавливаться в институт…-Сборы в России: $7 979
Зрители: Россия 2.2 тыс.
Премьера (мир): 19 апреля 2012
Премьера (РФ): 19 апреля 2012, «Каропрокат»-Рейтинг:-Качество: SATRip
Формат: AVI
Видео кодек: DivX 5
Аудио кодеk: MP3
Видео: 704x384 (1.83:1), 25 fps, DivX Codec 6.8.5/6.9.1 ~2168 kbps avg, 0.32 bit/pixel
Аудио: Аудио #1: 48 kHz, MPEG Layer 3, 2 ch, ~192.00 kbps avg
-Скачать: Сэмпл
Релиз группы: -

МедиаИнфо

Код: copyText_writeLink('this.parentNode.parentNode.nextSibling.nextSibling'); General
Complete name : Voin.com.2012.O.SATRip.1400MB.avi
Format : AVI
Format/Info : Audio Video Interleave
File size : 1.37 GiB
Duration : 1h 22mn
Overall bit rate : 2 370 Kbps
Writing library : VirtualDub build 32842/release
Video
ID : 0
Format : MPEG-4 Visual
Format settings, BVOP : Yes
Format settings, QPel : No
Format settings, GMC : No warppoints
Format settings, Matrix : Default (H.263)
Muxing mode : Packed bitstream
Codec ID : DX50
Codec ID/Hint : DivX 5
Duration : 1h 22mn
Bit rate : 2 169 Kbps
Width : 704 pixels
Height : 384 pixels
Display aspect ratio : 16:9
Frame rate : 25.000 fps
Color space : YUV
Chroma subsampling : 4:2:0
Bit depth : 8 bits
Scan type : Progressive
Bits/(Pixel*Frame) : 0.321
Stream size : 1.25 GiB (91%)
Writing library : DivX 6.8.5 (UTC 2009-08-20)
Audio
ID : 1
Format : MPEG Audio
Format version : Version 1
Format profile : Layer 3
Mode : Joint stereo
Codec ID : 55
Codec ID/Hint : MP3
Duration : 1h 22mn
Bit rate mode : Constant
Bit rate : 192 Kbps
Channel(s) : 2 channels
Sampling rate : 48.0 KHz
Stream size : 114 MiB (8%)
Alignment : Split accross interleaves
Interleave, duration : 40 ms (1.00 video frame)
Interleave, preload duration : 500 ms
-

скриншоты


-[url=http://iv-torrents.ru/viewtopic.php?t=120469&start=0] -

_________________
Показать сообщения:    

Текущее время: Сегодня 11:01

Часовой пояс: GMT



Вы не можете начинать темы
Вы не можете отвечать на сообщения
Вы не можете редактировать свои сообщения
Вы не можете удалять свои сообщения
Вы не можете голосовать в опросах
Вы не можете прикреплять файлы к сообщениям
Вы не можете скачивать файлы