Важное объявление!
У Нас Все раздачи мультитрекерные, при нуле пиров в релизах, можете смело вставать на закачку!
 
Автор Сообщение

HUNTER

Стаж:
4 года 4 месяца
Сообщений:
56719

Репутация: 101

[+] [-]
Вне форума [Профиль] [ЛС]

Возлюбленная Дьявола / L'Amante Del Demonio
Страна: Италия
Студия: Nova International Films
Жанр: мистика
Год выпуска: 1972
Продолжительность: 01:17:06
Перевод: Одноголосый закадровый schemer
Cубтитры: русские Северный
Оригинальная аудиодорожка: итальянский
Режиссер: Паоло Ломбардо / Paolo Lombardo
В ролях: Эдмунд Пердом, Розальба Нери, Спартако Конверси, Франческа Лионти
Описание: Три девушки ради интереса проникают в заброшенный замок. Там их встречает странный слуга, который с радостью показывает им замок, а в заключении предлагает вкусный ужин. На ночь глядя девушки начинают собираться домой, но погода портится, и им приходится заночевать в гостеприимном замке. Ночью одна из девушек решает прогуляться по замку и в одной комнате обнаруживает портрет женщины как две капли воды похожей на нее. Внезапно откуда-то снизу раздается громовой смех, и девушка падает без сознания…Мы видим женщину с картины, одетую в старомодные одежды, прогуливающуюся по саду. Это Хельга. Много лет назад она вместе с друзьями обнаружила тела двух повешенных на дереве мужчин. Молодые люди в ужасе пустились наутек, но попали в ловушку. Двое мужчин в масках отвели пойманных девушек в подвал, где началась вампирская оргия. Неожиданно в пещере появился человек в красных одеждах. Хельга не вынесла этих ужасов и умерла…Мы снова переносимся в настоящее время, где Хельга реинкарнировалась в одну из девушек. Она встречает красивого молодого человека, не подозревая. что это самый настоящий Дьявол. Они становятся любовниками. Хельга убивает сначала своего мужа, после чего женщину, которая была свидетельницей ее любовных утех с Дьяволом. Но вскоре становится очевидным, что Хельгу ждет неминуемая расплата за грехи…
Художественным оформлением картины занимался Джованни Фраталокки («Может быть Бог простит тебя, но я нет», 1968; «Psychout for Murder», 1969; «Смерть шагает в темноте», 1977; «Ночь ужаса», 1980; «Патрик еще жив», 1980). Интересно, что Розальба Нери по-настоящему была испугана съемками в этом фильме.
Доп. информация: Русская звуковая дорожка и субтитры взяты с этих раздач [url=http://rutracker.org/forum/tracker.php?nm=L'amante%20del%20demonio%201972]http://rutracker.org/forum/tracker.php?nm=L'amante%...20demonio%201972[/url] авторам большое спасибо.
При пересборе двд были использованы программы:
BeSweet в связке с BeLight – распаковка звука в формат WAV
Sony Vegas – кодирование в AC3
PgcDemux - разделение компонентов диска на файлы
Muxman - мультиплексирование и авторинг DVD
VobBlanker - реавторинг DVD

Сони вегас

Скрин завершения проекта

Сэмпл: http://sendfile.su/1120279
Тип релиза: DVD5 (Custom)
Контейнер: DVD-Video
Видео: NTSC 4:3 (720x480) VBR
Аудио: Russian (Dolby AC3, 192 Кбит/сек, 2 ch)
Аудио 2: Italiano (Dolby AC3, 256 Кбит/сек, 2 ch)
Формат субтитров: prerendered (DVD/IDX+SUB)

DVDInfo

Size: 4.14 Gb ( 4 344 168 KBytes ) - DVD-5
Enabled regions: 1, 2, 3, 4, 5, 6, 7, 8
VTS_01 :
Play Length: 00:00:15
Video: NTSC 4:3 (720x480) VBR
VTS_02 :
Play Length: 01:17:06
Video: NTSC 4:3 (720x480) VBR
Audio:
Russian (Dolby AC3, 2 ch)
Italiano (Dolby AC3, 2 ch)
Subtitles:
Russian
English
VTS_03 :
Play Length: 00:00:09
Video: NTSC 4:3 (720x480) VBR
Audio:
Italiano (Dolby AC3, 2 ch)
Menu Video:
NTSC 4:3 (720x480) VBR
Menu English Language Unit :
Root Menu
Subpicture Menu
Chapter (PTT) Menu

MediaInfo

Общее
Полное имя : F:\L'amante del demonio_1972\VIDEO_TS\VTS_02_1.VOB
Формат : MPEG-PS
Размер файла : 1024 Мбайт
Продолжительность : 20 м.
Режим общего битрейта : Переменный
Общий поток : 6935 Кбит/сек
Видео
Идентификатор : 224 (0xE0)
Формат : MPEG Video
Версия формата : Version 2
Профиль формата : Main@Main
Параметр BVOP формата : Да
Параметр матрицы формата : Выборочная
Параметр GOP формата : M=3, N=12
Продолжительность : 20 м.
Вид битрейта : Переменный
Битрейт : 6349 Кбит/сек
Максимальный битрейт : 8300 Кбит/сек
Ширина : 720 пикселей
Высота : 480 пикселей
Соотношение сторон : 4:3
Частота кадров : 23,976 кадра/сек
Стандарт вещания : NTSC
Цветовое пространство : YUV
Субдискретизация насыщенности : 4:2:0
Битовая глубина : 8 бит
Тип развёртки : Прогрессивная
Порядок развёртки : 2:3 Pulldown
Метод сжатия : С потерями
Бит/(Пиксели*Кадры) : 0.766
Размер потока : 937 Мбайт (92%)
Основные цвета : BT.601 NTSC
Характеристики трансфера : BT.601
Коэффициенты матрицы : BT.601
Аудио #1
Идентификатор : 189 (0xBD)-128 (0x80)
Формат : AC-3
Формат/Информация : Audio Coding 3
Расширение режима : CM (complete main)
Параметр Endianness формата : Big
Режим смешивания : DVD-Video
Продолжительность : 20 м.
Вид битрейта : Постоянный
Битрейт : 192 Кбит/сек
Каналы : 2 канала
Расположение каналов : Front: L R
Частота : 48,0 КГц
Битовая глубина : 16 бит
Метод сжатия : С потерями
Размер потока : 28,3 Мбайт (3%)
Аудио #2
Идентификатор : 189 (0xBD)-129 (0x81)
Формат : AC-3
Формат/Информация : Audio Coding 3
Расширение режима : CM (complete main)
Параметр Endianness формата : Big
Режим смешивания : DVD-Video
Продолжительность : 20 м.
Вид битрейта : Постоянный
Битрейт : 256 Кбит/сек
Каналы : 2 канала
Расположение каналов : Front: L R
Частота : 48,0 КГц
Битовая глубина : 16 бит
Метод сжатия : С потерями
Размер потока : 37,8 Мбайт (4%)
Текст #1
Идентификатор : 189 (0xBD)-32 (0x20)
Формат : RLE
Формат/Информация : Run-length encoding
Режим смешивания : DVD-Video
Продолжительность : 20 м.
Задержка видео : 16 с.
Текст #2
Идентификатор : 189 (0xBD)-33 (0x21)
Формат : RLE
Формат/Информация : Run-length encoding
Режим смешивания : DVD-Video
Продолжительность : 20 м.
Задержка видео : 14 с.
Меню

Постеры

Скриншоты меню

Скриншоты


_________________
Показать сообщения:    

Текущее время: Сегодня 04:59

Часовой пояс: GMT



Вы не можете начинать темы
Вы не можете отвечать на сообщения
Вы не можете редактировать свои сообщения
Вы не можете удалять свои сообщения
Вы не можете голосовать в опросах
Вы не можете прикреплять файлы к сообщениям
Вы не можете скачивать файлы