Важное объявление!
У Нас Все раздачи мультитрекерные, при нуле пиров в релизах, можете смело вставать на закачку!
 
Автор Сообщение

HUNTER

Стаж:
4 года 4 месяца
Сообщений:
56733

Репутация: 101

[+] [-]
Вне форума [Профиль] [ЛС]

Воздушный маршал / Non-Stop
Страна: Великобритания, Франция, США
Студия: StudioCanal, Silver Pictures, Anton Capital Entertainment (ACE)
Жанр: боевик, триллер, детектив
Год выпуска: 2014
Продолжительность: 01:46:37
Перевод 1: Профессиональный (дублированный) Blu-Ray Rus
Перевод 2: Одноголосый (закадровый) Д.Есарев
Cубтитры: русские(forced, full), английские(full, SDH, SDH-Colored)
Оригинальная аудиодорожка: английский
Режиссер: Хауме Кольет-Серра / Jaume Collet-Serra
В ролях: Лиам Нисон, Джулианна Мур, Скут МакНэйри, Мишель Докери, Нэйт Паркер, Кори Столл, Лупита Нионго, Омар Метуолли, Джейсон Батлер Харнер, Лайнас Роуч
Описание: Межконтинентальный авиарейс. Билл Маркс, воздушный маршал, который обеспечивает безопасность пассажиров, получает сообщения с угрозами от маньяка-террориста. Преступник просчитал все ходы и подставил под обвинение самого спецагента. Теперь Маркс — цель спецслужб США. Ему остается одно: вычислить и обезвредить преступника, спасти пассажиров и свою любовь, которую он обретает на краю гибели. До взрыва остаются считанные минуты…

Тип релиза: BDRip 1080p [HDMaNiAcS]
Контейнер: MKV
Исходник:Non-Stop 2014 1080p Blu-ray AVC DTS-HD MA 5.1-WiHD
Видео:AVC,1920x800, 21500 kbps, 23.976 fps
Аудио 1: Russian: 48 kHz, DTS, 3/2 (L,C,R,l,r) + LFE ch, ~1536 kbps avg |BD RUS|
Аудио 2: Russian: 48 kHz, DTS, 3/2 (L,C,R,l,r) + LFE ch, ~1536.00 kbps avg |Есарев|
Аудио 3: English: 48 kHz, DTS, 3/2 (L,C,R,l,r) + LFE ch, ~1536.00 kbps |Original|
Аудио 4: English: 48 kHz, AC3, 2/0 (L,R) ch, ~192 kbps avg |Commentary|
Чаптеры:есть

Доп.информация
Перевод Дмитрия Есарева доступен благодаря пользователям "Переулка Переводмана": Skazhutin, Mr. X, Loki1982, Прохожий, будулайроманов, Kruj0k, igrok2012, dikii.
Работа со звуком - Переводман.
За русские сабы спасибо Skazhutin.
x264 log
x264 [info]: frame I:1123 Avg QP:18.20 size:242435
x264 [info]: frame P:34524 Avg QP:18.87 size:128144
x264 [info]: frame B:117736 Avg QP:19.66 size:106119
x264 [info]: consecutive B-frames: 3.2% 4.2% 9.1% 9.4% 14.0% 51.6% 5.5% 1.4% 1.5%
MediaInfo
General
Unique ID : 190145326354653389645430141127256210983 (0x8F0CA86458C98C3095F730978A787E27)
Complete name : D:\рипы\Non-Stop.2014.1080p.BluRay.DTS x264-Talian-.mkv
Format : Matroska
Format version : Version 2
File size : 19.5 GiB
Duration : 1h 46mn
Overall bit rate : 26.2 Mbps
Movie name : -Talian-
Encoded date : UTC 2014-06-20 18:32:43
Writing application : mkvmerge v5.7.0 ('The Whirlwind') built on Jul 8 2012 20:08:51
Writing library : libebml v1.2.3 + libmatroska v1.3.0
Video
ID : 1
Format : AVC
Format/Info : Advanced Video Codec
Format profile : High@L4.1
Format settings, CABAC : Yes
Format settings, ReFrames : 5 frames
Codec ID : V_MPEG4/ISO/AVC
Duration : 1h 46mn
Bit rate : 21.5 Mbps
Width : 1 920 pixels
Height : 800 pixels
Display aspect ratio : 2.40:1
Frame rate : 23.976 fps
Color space : YUV
Chroma subsampling : 4:2:0
Bit depth : 8 bits
Scan type : Progressive
Bits/(Pixel*Frame) : 0.584
Stream size : 15.6 GiB (80%)
Title : HDMaNiAcS
Writing library : x264 core 133 r2334 a3ac64b
Encoding settings : cabac=1 / ref=5 / deblock=1:-3:-3 / analyse=0x3:0x113 / me=tesa / subme=11 / psy=1 / psy_rd=1.10:0.10 / mixed_ref=1 / me_range=24 / chroma_me=1 / trellis=2 / 8x8dct=1 / cqm=0 / deadzone=21,11 / fast_pskip=0 / chroma_qp_offset=-3 / threads=12 / lookahead_threads=2 / sliced_threads=0 / nr=0 / decimate=0 / interlaced=0 / bluray_compat=0 / constrained_intra=0 / bframes=8 / b_pyramid=2 / b_adapt=2 / b_bias=0 / direct=3 / weightb=1 / open_gop=0 / weightp=2 / keyint=250 / keyint_min=23 / scenecut=40 / intra_refresh=0 / rc_lookahead=40 / rc=2pass / mbtree=0 / bitrate=21500 / ratetol=1.0 / qcomp=0.70 / qpmin=10 / qpmax=69 / qpstep=4 / cplxblur=20.0 / qblur=0.5 / vbv_maxrate=40000 / vbv_bufsize=30000 / nal_hrd=none / ip_ratio=1.25 / pb_ratio=1.10 / aq=1:0.60
Language : English
Default : Yes
Forced : No
Audio #1
ID : 2
Format : DTS
Format/Info : Digital Theater Systems
Codec ID : A_DTS
Duration : 1h 46mn
Bit rate mode : Constant
Bit rate : 1 510 Kbps
Channel(s) : 6 channels
Channel positions : Front: L C R, Side: L R, LFE
Sampling rate : 48.0 KHz
Bit depth : 24 bits
Compression mode : Lossy
Stream size : 1.12 GiB (6%)
Title : DUB-Blu-Ray Rus
Language : Russian
Default : Yes
Forced : No
Audio #2
ID : 3
Format : DTS
Format/Info : Digital Theater Systems
Codec ID : A_DTS
Duration : 1h 46mn
Bit rate mode : Constant
Bit rate : 1 510 Kbps
Channel(s) : 6 channels
Channel positions : Front: L C R, Side: L R, LFE
Sampling rate : 48.0 KHz
Bit depth : 24 bits
Compression mode : Lossy
Stream size : 1.12 GiB (6%)
Title : VO-Д.Есарев
Language : Russian
Default : No
Forced : No
Audio #3
ID : 4
Format : DTS
Format/Info : Digital Theater Systems
Codec ID : A_DTS
Duration : 1h 46mn
Bit rate mode : Constant
Bit rate : 1 510 Kbps
Channel(s) : 6 channels
Channel positions : Front: L C R, Side: L R, LFE
Sampling rate : 48.0 KHz
Bit depth : 24 bits
Compression mode : Lossy
Stream size : 1.12 GiB (6%)
Title : Original
Language : English
Default : No
Forced : No
Audio #4
ID : 5
Format : AC-3
Format/Info : Audio Coding 3
Format profile : Dolby Digital
Mode extension : CM (complete main)
Format settings, Endianness : Big
Codec ID : A_AC3
Duration : 1h 46mn
Bit rate mode : Constant
Bit rate : 192 Kbps
Channel(s) : 2 channels
Channel positions : Front: L R
Sampling rate : 48.0 KHz
Bit depth : 16 bits
Compression mode : Lossy
Stream size : 146 MiB (1%)
Title : Commentary
Language : English
Default : No
Forced : No
Text #1
ID : 6
Format : UTF-8
Codec ID : S_TEXT/UTF8
Codec ID/Info : UTF-8 Plain Text
Title : Sub-forced
Language : Russian
Default : Yes
Forced : No
Text #2
ID : 7
Format : UTF-8
Codec ID : S_TEXT/UTF8
Codec ID/Info : UTF-8 Plain Text
Title : Sub-full
Language : Russian
Default : No
Forced : No
Text #3
ID : 8
Format : UTF-8
Codec ID : S_TEXT/UTF8
Codec ID/Info : UTF-8 Plain Text
Title : Sub-full
Language : English
Default : No
Forced : No
Text #4
ID : 9
Format : UTF-8
Codec ID : S_TEXT/UTF8
Codec ID/Info : UTF-8 Plain Text
Title : Sub-SDH
Language : English
Default : No
Forced : No
Text #5
ID : 10
Format : UTF-8
Codec ID : S_TEXT/UTF8
Codec ID/Info : UTF-8 Plain Text
Title : Sub-SDH-Colored
Language : English
Default : No
Forced : No
Text #6
ID : 11
Format : UTF-8
Codec ID : S_TEXT/UTF8
Codec ID/Info : UTF-8 Plain Text
Title : Sub
Language : Danish
Default : No
Forced : No
Text #7
ID : 12
Format : UTF-8
Codec ID : S_TEXT/UTF8
Codec ID/Info : UTF-8 Plain Text
Title : Sub
Language : Dutch
Default : No
Forced : No
Text #8
ID : 13
Format : UTF-8
Codec ID : S_TEXT/UTF8
Codec ID/Info : UTF-8 Plain Text
Title : Sub
Language : Italian
Default : No
Forced : No
Text #9
ID : 14
Format : UTF-8
Codec ID : S_TEXT/UTF8
Codec ID/Info : UTF-8 Plain Text
Title : Sub
Language : Portuguese
Default : No
Forced : No
Text #10
ID : 15
Format : UTF-8
Codec ID : S_TEXT/UTF8
Codec ID/Info : UTF-8 Plain Text
Title : Sub
Language : Portuguese
Default : No
Forced : No
Menu
00:00:00.000 : en:00:00:00.000
00:04:24.639 : en:00:04:24.639
00:10:29.045 : en:00:10:29.045
00:14:47.053 : en:00:14:47.053
00:18:51.839 : en:00:18:51.839
00:24:22.127 : en:00:24:22.127
00:29:44.574 : en:00:29:44.574
00:35:48.605 : en:00:35:48.605
00:39:28.491 : en:00:39:28.491
00:45:41.572 : en:00:45:41.572
00:49:03.941 : en:00:49:03.941
00:55:17.731 : en:00:55:17.731
01:01:59.257 : en:01:01:59.257
01:08:42.327 : en:01:08:42.327
01:12:16.999 : en:01:12:16.999
01:18:14.982 : en:01:18:14.982
01:26:02.032 : en:01:26:02.032
01:30:46.191 : en:01:30:46.191
01:36:14.727 : en:01:36:14.727
01:40:13.799 : en:01:40:13.799
Скриншоты
Source vs Encode




_________________
Показать сообщения:    

Текущее время: Сегодня 18:06

Часовой пояс: GMT



Вы не можете начинать темы
Вы не можете отвечать на сообщения
Вы не можете редактировать свои сообщения
Вы не можете удалять свои сообщения
Вы не можете голосовать в опросах
Вы не можете прикреплять файлы к сообщениям
Вы не можете скачивать файлы