Важное объявление!
У Нас Все раздачи мультитрекерные, при нуле пиров в релизах, можете смело вставать на закачку!
 
Автор Сообщение

димитри37

Стаж:
3 года 9 месяцев
Сообщений:
1237

Репутация: 127

[+] [-]
Вне форума [Профиль] [ЛС]

Возвращение героя / The Last Stand «Спокойная жизнь не для него» / «Retirement is for Sissies»
Год выпуска: 2013
Страна: США
Жанр: боевик, триллер, криминал
Продолжительность: 01:47:03.375
Перевод: Профессиональный (дублированный)
Оригинальная аудиодорожка: Английская
Субтитры: Русские (полные), английские (полные)
Студия: Di Bonaventura Pictures
Режиссёр: Ким Чжи Ун / Kim Ji Woon
В ролях: Арнольд Шварценеггер, Форест Уитакер, Джонни Ноксвилл, Родриго Санторо, Джейми Александр, Луис Гузман, Эдуардо Норьега, Петер Стормаре, Зак Гилфорд, Генезис Родригез и др.
Описание: Самая опасная и жестокая банда наркоторговцев сбегает из-под конвоя ФБР. Прихватив заложника, они мчатся к мексиканской границе на бронированной, оснащенной первоклассным вооружением машине. У них на пути стоит лишь тихий городок, за порядком в котором следит шериф Оуенс. Когда-то он был одним из лучших полицейских Лос-Анджелеса, теперь он вернулся.
  • Кинопоиск
  • IMDB
  • Blu-ray.com
  • Сэмпл
    Качество: BDRip 1080p The.Last.Stand.2013.1080p.BluRay.DTS.x264-HDBRiSe
    Контейнер: MKV
    Видео кодек: MPEG-4 AVC Video
    Аудио кодек: DTS Audio
    Видео: MPEG-4 AVC Video / 14532 kbps / 1920x804p / 24,000 fps / 2.40:1 / 0.372 bit/pix / High@L4.1
    Аудио 1: Русский / DTS Audio / 5.1 / 48 kHz / 1536 kbps / 16-bit / Дубляж
    Аудио 2: English / DTS Audio / 5.1 / 48 kHz / 1536 kbps / 24-bit / Оригинал
    Навигация по главам: да

Скриншот с названием фильма

MediaInfo

D:\Своя!!!\Возвращение героя (The Last Stand) 2013, США, боевик, триллер, криминал, BDRip 1080p GORESEWAGE.mkv
General
Unique ID : 192813204411486055219368859889702325314 (0x910E78EF879D2C50ACF903A5AE84CC42)
Complete name : D:\Своя!!!\Возвращение героя (The Last Stand) 2013, США, боевик, триллер, криминал, BDRip 1080p GORESEWAGE.mkv
Format : Matroska
Format version : Version 4 / Version 2
File size : 12.8 GiB
Duration : 1h 47mn
Overall bit rate mode : Variable
Overall bit rate : 17.1 Mbps
Movie name : GORESEWAGE
Encoded date : UTC 2013-04-28 20:50:34
Writing application : mkvmerge v6.1.0 ('Old Devil') built on Mar 31 2013 15:21:18
Writing library : libebml v1.3.0 + libmatroska v1.4.0
Video #1
ID : 1
Format : AVC
Format/Info : Advanced Video Codec
Format profile : High@L4.1
Format settings, CABAC : Yes
Format settings, ReFrames : 4 frames
Codec ID : V_MPEG4/ISO/AVC
Duration : 1h 47mn
Bit rate mode : Variable
Bit rate : 13.8 Mbps
Nominal bit rate : 14.5 Mbps
Maximum bit rate : 14.5 Mbps
Width : 1 920 pixels
Height : 804 pixels
Display aspect ratio : 2.40:1
Frame rate mode : Constant
Frame rate : 24.000 fps
Color space : YUV
Chroma subsampling : 4:2:0
Bit depth : 8 bits
Scan type : Progressive
Bits/(Pixel*Frame) : 0.372
Stream size : 10.3 GiB (80%)
Title : GORESEWAGE
Writing library : x264 core 130 r2273 b3065e6
Encoding settings : cabac=1 / ref=5 / deblock=1:-1:-1 / analyse=0x3:0x133 / me=umh / subme=9 / psy=1 / psy_rd=1.00:0.06 / mixed_ref=1 / me_range=24 / chroma_me=1 / trellis=2 / 8x8dct=1 / cqm=0 / deadzone=21,11 / fast_pskip=0 / chroma_qp_offset=-3 / threads=6 / lookahead_threads=1 / sliced_threads=0 / slices=4 / nr=0 / decimate=1 / interlaced=0 / bluray_compat=1 / constrained_intra=0 / bframes=3 / b_pyramid=1 / b_adapt=2 / b_bias=0 / direct=3 / weightb=1 / open_gop=1 / weightp=1 / keyint=24 / keyint_min=1 / scenecut=40 / intra_refresh=0 / rc_lookahead=24 / rc=2pass / mbtree=1 / bitrate=14532 / ratetol=1.0 / qcomp=0.60 / qpmin=10 / qpmax=51 / qpstep=4 / cplxblur=20.0 / qblur=0.5 / vbv_maxrate=14532 / vbv_bufsize=14500 / nal_hrd=vbr / ip_ratio=1.40 / aq=1:1.00
Language : English
Default : Yes
Forced : No
Audio #2
ID : 2
Format : DTS
Format/Info : Digital Theater Systems
Codec ID : A_DTS
Duration : 1h 47mn
Bit rate mode : Constant
Bit rate : 1 510 Kbps
Channel(s) : 6 channels
Channel positions : Front: L C R, Side: L R, LFE
Sampling rate : 48.0 KHz
Bit depth : 16 bits
Compression mode : Lossy
Stream size : 1.13 GiB (9%)
Title : Профессиональный (дублированный)
Language : Russian
Default : Yes
Forced : No
Audio #3
ID : 3
Format : DTS
Format/Info : Digital Theater Systems
Codec ID : A_DTS
Duration : 1h 47mn
Bit rate mode : Constant
Bit rate : 1 510 Kbps
Channel(s) : 6 channels
Channel positions : Front: L C R, Side: L R, LFE
Sampling rate : 48.0 KHz
Bit depth : 24 bits
Compression mode : Lossy
Stream size : 1.13 GiB (9%)
Language : English
Default : No
Forced : No
Text #4
ID : 4
Format : UTF-8
Codec ID : S_TEXT/UTF8
Codec ID/Info : UTF-8 Plain Text
Language : Russian
Default : No
Forced : No
Text #5
ID : 5
Format : UTF-8
Codec ID : S_TEXT/UTF8
Codec ID/Info : UTF-8 Plain Text
Language : English
Default : No
Forced : No
Menu
00:00:00.000 : en:Chapter 01
00:05:50.791 : en:Chapter 02
00:13:07.375 : en:Chapter 03
00:22:35.083 : en:Chapter 04
00:32:58.791 : en:Chapter 05
00:41:50.166 : en:Chapter 06
00:48:05.750 : en:Chapter 07
00:57:00.208 : en:Chapter 08
01:07:55.291 : en:Chapter 09
01:15:02.125 : en:Chapter 10
01:22:42.458 : en:Chapter 11
01:27:25.833 : en:Chapter 12

Полноразмерный постер

Показать сообщения:    

Текущее время: Сегодня 16:01

Часовой пояс: GMT



Вы не можете начинать темы
Вы не можете отвечать на сообщения
Вы не можете редактировать свои сообщения
Вы не можете удалять свои сообщения
Вы не можете голосовать в опросах
Вы не можете прикреплять файлы к сообщениям
Вы не можете скачивать файлы