Важное объявление!
У Нас Все раздачи мультитрекерные, при нуле пиров в релизах, можете смело вставать на закачку!
 
Автор Сообщение

HUNTER

Стаж:
4 года 4 месяца
Сообщений:
56733

Репутация: 101

[+] [-]
Вне форума [Профиль] [ЛС]

Возвращение Буратино-
Страна: Россия
Жанр: Приключения, семейный
Продолжительность: 01:16:36
Год выпуска: 2013
Русские субтитры: нет
Режиссёр: Екатерина Михайлова
Роли озвучивали: Олег Табаков, Оскар Кучера, Нонна Гришаева, Полина Кутепова, Лидия Аветисян, Ольга Прокофьева, Борис Смолкин, Леонид Якубович, Мадлен Джабраилова, Елена Симонова
Описание: В современной нам Москве Карабас-Барабас, сменив имидж и имя, открывает фабрику-конвейер по производству игрушек. В цехах высотного здания из «сырья» — старых игрушек всех сортов и форм, — производятся две «инновационные» унифицированные модели: робот Зубастик для мальчиков и кукла Гламушка для девочек. Господин Баскара — так сейчас следует называть Карабаса, — уверен, что будущее (и огромные прибыли!) — именно за его моделями.
Релиз:
Автор: nnlabetik
Сэмпл
Качество: BDRip (AVC)
Исходник: Blu-Ray [HDCLUB]
Формат: MKV
Видео: MPEG-4 AVC, 960x544 (16:9), 23,976 fps, ~2274 kbps avg, 0.182 bit/pixel
Аудио: 48 kHz, AC3 Dolby Digital, 3/2 (L,C,R,l,r) + LFE ch, ~448 kbps avg

Подробные технические данные

ОбщееУникальный идентификатор : 249368598786183334375243417056953570933 (0xBB9AA529279552F4A34FB2D89B391675)Полное имя : C:\Vozvrazhenie.Buratino.2013.x264.BDRip.(AVC).mkvФормат : MatroskaВерсия формата : Version 4 / Version 2Размер файла : 1,46 ГбайтПродолжительность : 1 ч. 16 м.Общий поток : 2722 Кбит/секНазвание фильма : Возвращение Буратино / 2013 release by ==nnlabetik==Дата кодирования : UTC 2013-05-23 10:28:48Программа кодирования : mkvmerge v6.2.0 ('Promised Land') built on Apr 28 2013 12:22:01Библиотека кодирования : libebml v1.3.0 + libmatroska v1.4.0
ВидеоИдентификатор : 1Формат : AVCФормат/Информация : Advanced Video CodecПрофиль формата : High@L4.1Параметр CABAC формата : ДаПараметр ReFrames формата : 8 кадровИдентификатор кодека : V_MPEG4/ISO/AVCПродолжительность : 1 ч. 16 м.Битрейт : 2274 Кбит/секШирина : 960 пикселейВысота : 544 пикселяСоотношение сторон : 16:9Режим частоты кадров : ПостоянныйЧастота кадров : 23,976 кадра/секЦветовое пространство : YUVСубдискретизация насыщенности : 4:2:0Битовая глубина : 8 битТип развёртки : ПрогрессивнаяБит/(Пиксели*Кадры) : 0.182Размер потока : 1,19 Гбайт (82%)Библиотека кодирования : x264 core 129 r2230 1cffe9fНастройки программы : cabac=1 / ref=8 / deblock=1:-2:-1 / analyse=0x3:0x113 / me=umh / subme=11 / psy=1 / psy_rd=1.00:0.00 / mixed_ref=1 / me_range=16 / chroma_me=1 / trellis=2 / 8x8dct=1 / cqm=0 / deadzone=21,11 / fast_pskip=1 / chroma_qp_offset=-2 / threads=4 / lookahead_threads=1 / sliced_threads=0 / nr=0 / decimate=1 / interlaced=0 / bluray_compat=0 / constrained_intra=0 / bframes=9 / b_pyramid=2 / b_adapt=2 / b_bias=0 / direct=3 / weightb=1 / open_gop=0 / weightp=2 / keyint=240 / keyint_min=23 / scenecut=40 / intra_refresh=0 / rc=2pass / mbtree=0 / bitrate=2274 / ratetol=1.0 / qcomp=0.60 / qpmin=0 / qpmax=69 / qpstep=4 / cplxblur=20.0 / qblur=0.5 / ip_ratio=1.40 / pb_ratio=1.30 / aq=1:0.80Язык : RussianDefault : ДаForced : Нет
АудиоИдентификатор : 2Формат : AC-3Формат/Информация : Audio Coding 3Расширение режима : CM (complete main)Параметр Endianness формата : BigИдентификатор кодека : A_AC3Продолжительность : 1 ч. 16 м.Вид битрейта : ПостоянныйБитрейт : 448 Кбит/секКаналы : 6 каналовРасположение каналов : Front: L C R, Side: L R, LFEЧастота : 48,0 КГцБитовая глубина : 16 битМетод сжатия : С потерямиРазмер потока : 246 Мбайт (16%)Default : ДаForced : Нет
Меню00:00:00.000 : :Chapter 0100:04:10.416 : :Chapter 0200:11:21.764 : :Chapter 0300:19:11.275 : :Chapter 0400:26:15.198 : :Chapter 0500:32:20.021 : :Chapter 0600:39:59.730 : :Chapter 0700:47:29.763 : :Chapter 0800:54:50.870 : :Chapter 0901:02:52.143 : :Chapter 1001:08:43.119 : :Chapter 1101:13:06.715 : :Chapter 1201:16:36.800 : :Chapter 13

x264 [info]

---[NoImage] avs [info]: 960x544p 1:1 @ 24000/1001 fps (cfr)---[NoImage] x264 [info]: using SAR=1/1---[NoImage] x264 [info]: using cpu capabilities: MMX2 SSE2 SSSE3 SSE4.2---[NoImage] x264 [info]: profile High, level 4.1---[NoImage] x264 [warning]: too many nonmonotonic pts warnings, suppressing further ones---[NoImage] x264 [warning]: 110211 suppressed nonmonotonic pts warnings---[NoImage]---[NoImage] x264 [info]: frame I:1436 Avg QP:14.50 size: 93353---[NoImage] x264 [info]: frame P:30399 Avg QP:17.68 size: 21586---[NoImage] x264 [info]: frame B:78380 Avg QP:19.02 size: 6579---[NoImage] x264 [info]: consecutive B-frames: 4.4% 5.0% 11.8% 53.3% 16.6% 6.6% 1.2% 0.3% 0.3% 0.5%---[NoImage] x264 [info]: mb I I16..4: 6.0% 55.7% 38.2%---[NoImage] x264 [info]: mb P I16..4: 1.1% 4.6% 4.5% P16..4: 18.7% 18.0% 10.8% 0.0% 0.0% skip:42.4%---[NoImage] x264 [info]: mb B I16..4: 0.3% 0.5% 0.7% B16..8: 18.2% 8.9% 3.3% direct: 2.2% skip:65.9% L0:46.4% L1:45.6% BI: 8.0%---[NoImage] x264 [info]: 8x8 transform intra:45.9% inter:39.2%---[NoImage] x264 [info]: direct mvs spatial:97.5% temporal:2.5%---[NoImage] x264 [info]: coded y,uvDC,uvAC intra: 75.5% 75.2% 59.2% inter: 11.2% 9.1% 4.4%---[NoImage] x264 [info]: i16 v,h,dc,p: 61% 14% 7% 18%---[NoImage] x264 [info]: i8 v,h,dc,ddl,ddr,vr,hd,vl,hu: 11% 11% 13% 9% 10% 10% 10% 12% 15%---[NoImage] x264 [info]: i4 v,h,dc,ddl,ddr,vr,hd,vl,hu: 14% 11% 11% 9% 11% 11% 10% 10% 12%---[NoImage] x264 [info]: i8c dc,h,v,p: 42% 29% 18% 11%---[NoImage] x264 [info]: Weighted P-Frames: Y:3.9% UV:2.5%---[NoImage] x264 [info]: ref P L0: 49.7% 7.2% 16.2% 8.2% 5.8% 4.8% 3.9% 3.3% 0.7% 0.0%---[NoImage] x264 [info]: ref B L0: 67.9% 13.1% 7.5% 4.4% 3.9% 2.0% 1.3%---[NoImage] x264 [info]: ref B L1: 93.0% 7.0%---[NoImage] x264 [info]: kb/s:2272.68---[NoImage] encoded 110215 frames, 11.92 fps, 2272.68 kb/s

Скриншоты


_________________
Показать сообщения:    

Текущее время: Сегодня 18:06

Часовой пояс: GMT



Вы не можете начинать темы
Вы не можете отвечать на сообщения
Вы не можете редактировать свои сообщения
Вы не можете удалять свои сообщения
Вы не можете голосовать в опросах
Вы не можете прикреплять файлы к сообщениям
Вы не можете скачивать файлы