Важное объявление!
У Нас Все раздачи мультитрекерные, при нуле пиров в релизах, можете смело вставать на закачку!
 
Автор Сообщение

HUNTER

Стаж:
4 года 4 месяца
Сообщений:
56829

Репутация: 101

[+] [-]
Вне форума [Профиль] [ЛС]

Возвращение блудного попугая / Новые приключения попугая Кеши---
Год выпуска: 1988, 2005
Страна: CCCР-Россия
Студия: Союзмультфильм
Жанр: мультфильм, комедия, семейный
Продолжительность: 5 ~ 00:10:00
Перевод: Оригинал
Режиссер: Валентин Караваев, Александр Давыдов
Роли озвучивали: Геннадий Хазанов, Маргарита Корабельникова, Зинаида Нарышкина, Вячеслав Невинный, Наталия Ченчик, Валентин Караваев, Герман Качин, Игорь Христенко, Дмитрий Филимонов, Дмитрий Курта...--Описание:
Приключения попугая Кеши--
--Качество: DVDRip-AVC
Формат: MKV
Видео кодек: H264
Аудио кодек: AC3
Видео: 720x576@768x576 (4:3), 25 fps, H264 ~ 1727 kbps avg, 0.167 bit/pixel
Аудио: 48 kHz, AC3, 2 ch, 192.00 kbps-- --

Отчёт MediaInfo

Код: copyText_writeLink('this.parentNode.parentNode.nextSibling.nextSibling'); Общее
Полное имя : Vozvrawenie.bludnogo.popugaja.DVDRip-AVC.mkv
Формат : Matroska
Версия формата : Version 2
Размер файла : 132 Мбайт
Продолжительность : 9 м. 34 с.
Общий поток : 1919 Кбит/сек
Дата кодирования : UTC 2012-10-09 17:25:15
Программа кодирования : mkvmerge v5.8.0 ('No Sleep / Pillow') built on Sep 2 2012 15:37:04
Библиотека кодирования : libebml v1.2.3 + libmatroska v1.3.0
Видео
Идентификатор : 1
Формат : AVC
Формат/Информация : Advanced Video Codec
Профиль формата : [url=mailto:High@L4.1]High@L4.1[/url]
Параметр CABAC формата : Да
Параметр ReFrames формата : 11 кадров
Идентификатор кодека : V_MPEG4/ISO/AVC
Продолжительность : 9 м. 34 с.
Битрейт : 1727 Кбит/сек
Ширина : 720 пикселей
Высота : 576 пикселей
Соотношение сторон : 4:3
Частота кадров : 25,000 кадров/сек
Стандарт вещания : PAL
Цветовое пространство : YUV
Субдискретизация насыщенности : 4:2:0
Битовая глубина : 8 бит
Тип развёртки : Прогрессивная
Бит/(Пиксели*Кадры) : 0.167
Размер потока : 116 Мбайт (88%)
Библиотека кодирования : x264 core 119 r2106 07efeb4
Настройки программы : cabac=1 / ref=11 / deblock=1:-2:-1 / analyse=0x3:0x113 / me=umh / subme=9 / psy=1 / psy_rd=1.00:0.20 / mixed_ref=1 / me_range=32 / chroma_me=1 / trellis=1 / 8x8dct=1 / cqm=0 / deadzone=21,11 / fast_pskip=0 / chroma_qp_offset=-3 / threads=3 / sliced_threads=0 / nr=0 / decimate=0 / interlaced=0 / bluray_compat=0 / constrained_intra=0 / bframes=8 / b_pyramid=2 / b_adapt=2 / b_bias=0 / direct=3 / weightb=1 / open_gop=0 / weightp=2 / keyint=250 / keyint_min=25 / scenecut=40 / intra_refresh=0 / rc_lookahead=60 / rc=2pass / mbtree=1 / bitrate=1727 / ratetol=1.0 / qcomp=0.60 / qpmin=0 / qpmax=69 / qpstep=4 / cplxblur=20.0 / qblur=0.5 / ip_ratio=1.40 / aq=1:1.00
Default : Да
Forced : Нет
Аудио
Идентификатор : 2
Формат : AC-3
Формат/Информация : Audio Coding 3
Расширение режима : CM (complete main)
Идентификатор кодека : A_AC3
Продолжительность : 9 м. 34 с.
Вид битрейта : Постоянный
Битрейт : 192 Кбит/сек
Каналы : 2 канала
Расположение каналов : Front: L R
Частота : 48,0 КГц
Битовая глубина : 16 бит
Метод сжатия : С потерями
Задержка видео : 320 мс.
Размер потока : 13,2 Мбайт (10%)
Default : Да
Forced : Нет

Список серий

1. Возвращение блудного попугая выпуск 1
2. Возвращение блудного попугая выпуск 2
3. Возвращение блудного попугая выпуск 3
4. Кеша рыболов
5. Мужество попугая Кеши
--

Пожалуйста, оставайтесь на раздаче как можно дольше--

_________________
Показать сообщения:    

Текущее время: Сегодня 16:00

Часовой пояс: GMT



Вы не можете начинать темы
Вы не можете отвечать на сообщения
Вы не можете редактировать свои сообщения
Вы не можете удалять свои сообщения
Вы не можете голосовать в опросах
Вы не можете прикреплять файлы к сообщениям
Вы не можете скачивать файлы