Важное объявление!
У Нас Все раздачи мультитрекерные, при нуле пиров в релизах, можете смело вставать на закачку!
 
Автор Сообщение

HUNTER

Стаж:
4 года 4 месяца
Сообщений:
56809

Репутация: 101

[+] [-]
Вне форума [Профиль] [ЛС]

Возврат / Исправление / Reclaim
Страна: США, Китай, Малайзия
Жанр: триллер, драма
Год выпуска: 2014
Продолжительность: 01:36:02
Перевод: Любительский (двухголосый закадровый) ColdFilm
Cубтитры: английские, английские (SDH), русские (KeRoB, 12qwerty345)
Оригинальная аудиодорожка: английский
Режиссер: Алан Уайт / Alan White
В ролях: Райан Филипп, Рашель Лефевр, Джон Кьюсак, Джеки Уивер, Луис Гусман, Бриана Рой, Яндрес Бургос, Лиз Вероника Фу, Алекс Синтрон, Милли Руперто
Описание:
Американская пара становится жертвой подпольной аферы во время своего путешествия за границу. И теперь им придется рискнуть своей жизнью ради спасения собственной дочери.
- || -Тип релиза: BDRip 720p (рип от Delia@SbR)

Контейнер: MKV
Видео: AVC (x264), 1280x692 (1,85:1) at 23,976 fps, 5264 Кbps, 0.248 bpp
Аудио 1: AC3; 384 Kbps; CBR; 6 ch; 48 khz | DVO - ColdFilm |
Аудио 2: AC3; 640 Kbps; CBR; 6 ch; 48 khz | Английский |
Формат субтитров: softsub (SRT)

Скриншоты || x264 Info || MediaInfo || Notes

MediaInfo
Код:
Общее
Уникальный идентификатор                 : 192149310123183631450733708382422101267 (0x908E9C6B8AB8B7C58026A003F826ED13)
Полное имя                               : Возврат.2014.DVO.720p.BluRay.x264-SbR.mkv
Формат                                   : Matroska
Версия формата                           : Version 4 / Version 2
Размер файла                             : 4,30 Гбайт
Продолжительность                        : 1 ч. 36 м.
Общий поток                              : 6415 Кбит/сек
Название фильма                          : Reclaim [2014] [720p] DVO
Дата кодирования                         : UTC 2014-11-26 13:33:35
Программа кодирования                    : mkvmerge v7.3.0 ('Nouages') 32bit built on Oct 22 2014 18:44:01
Библиотека кодирования                   : libebml v1.3.0 + libmatroska v1.4.1
Видео
Идентификатор                            : 1
Формат                                   : AVC
Формат/Информация                        : Advanced Video Codec
Профиль формата                          : High@L4.1
Параметр CABAC формата                   : Да
Параметр ReFrames формата                : 9 кадров
Идентификатор кодека                     : V_MPEG4/ISO/AVC
Продолжительность                        : 1 ч. 36 м.
Битрейт                                  : 5264 Кбит/сек
Ширина                                   : 1280 пикселей
Высота                                   : 692 пикселя
Соотношение сторон                       : 1,85:1
Режим частоты кадров                     : Постоянный
Частота кадров                           : 23,976 кадра/сек
Цветовое пространство                    : YUV
Субдискретизация насыщенности            : 4:2:0
Битовая глубина                          : 8 бит
Тип развёртки                            : Прогрессивная
Бит/(Пиксели*Кадры)                      : 0.248
Размер потока                            : 3,53 Гбайт (82%)
Заголовок                                : profile.php?mode=viewprofile&u=22488948
Библиотека кодирования                   : x264 core 142 r2431+42 c69a006 tMod [8-bit@all X86_64]
Настройки программы                      : cabac=1 / ref=9 / deblock=1:-3:-3 / analyse=0x3:0x133 / me=esa / subme=10 / psy=1 / fade_compensate=0.00 / psy_rd=1.00:0.05 / mixed_ref=1 / me_range=24 / chroma_me=1 / trellis=2 / 8x8dct=1 / cqm=0 / deadzone=21,11 / fast_pskip=0 / chroma_qp_offset=-3 / threads=6 / lookahead_threads=1 / sliced_threads=0 / nr=0 / decimate=1 / interlaced=0 / bluray_compat=0 / constrained_intra=0 / fgo=0 / bframes=12 / b_pyramid=2 / b_adapt=2 / b_bias=0 / direct=3 / weightb=1 / open_gop=0 / weightp=2 / keyint=250 / keyint_min=23 / scenecut=40 / intra_refresh=0 / rc_lookahead=60 / rc=crf / mbtree=0 / crf=17.2000 / qcomp=0.70 / qpmin=0:0:0 / qpmax=69:69:69 / qpstep=4 / vbv_maxrate=62500 / vbv_bufsize=78125 / crf_max=0.0 / nal_hrd=none / filler=0 / ip_ratio=1.30 / pb_ratio=1.20 / aq=1:0.80 / aq-sensitivity=10.00 / aq-factor=1.00:1.00:1.00 / aq2=0 / aq3=0
Язык                                     : English
Default                                  : Да
Forced                                   : Нет
Коэффициенты матрицы                     : BT.709
Аудио #1
Идентификатор                            : 2
Формат                                   : AC-3
Формат/Информация                        : Audio Coding 3
Расширение режима                        : CM (complete main)
Параметр Endianness формата              : Big
Идентификатор кодека                     : A_AC3
Продолжительность                        : 1 ч. 36 м.
Вид битрейта                             : Постоянный
Битрейт                                  : 384 Кбит/сек
Каналы                                   : 6 каналов
Расположение каналов                     : Front: L C R, Side: L R, LFE
Частота                                  : 48,0 КГц
Битовая глубина                          : 16 бит
Метод сжатия                             : С потерями
Размер потока                            : 264 Мбайт (6%)
Заголовок                                : DVO [ColdFilm]
Язык                                     : Russian
Default                                  : Да
Forced                                   : Нет
Аудио #2
Идентификатор                            : 3
Формат                                   : AC-3
Формат/Информация                        : Audio Coding 3
Расширение режима                        : CM (complete main)
Параметр Endianness формата              : Big
Идентификатор кодека                     : A_AC3
Продолжительность                        : 1 ч. 36 м.
Вид битрейта                             : Постоянный
Битрейт                                  : 640 Кбит/сек
Каналы                                   : 6 каналов
Расположение каналов                     : Front: L C R, Side: L R, LFE
Частота                                  : 48,0 КГц
Битовая глубина                          : 16 бит
Метод сжатия                             : С потерями
Размер потока                            : 440 Мбайт (10%)
Язык                                     : English
Default                                  : Нет
Forced                                   : Нет
Текст #1
Идентификатор                            : 4
Формат                                   : UTF-8
Идентификатор кодека                     : S_TEXT/UTF8
Идентификатор кодека/Информация          : UTF-8 Plain Text
Язык                                     : English
Default                                  : Нет
Forced                                   : Нет
Текст #2
Идентификатор                            : 5
Формат                                   : UTF-8
Идентификатор кодека                     : S_TEXT/UTF8
Идентификатор кодека/Информация          : UTF-8 Plain Text
Заголовок                                : SDH
Язык                                     : English
Default                                  : Нет
Forced                                   : Нет
Текст #3
Идентификатор                            : 6
Формат                                   : UTF-8
Идентификатор кодека                     : S_TEXT/UTF8
Идентификатор кодека/Информация          : UTF-8 Plain Text
Заголовок                                : [KeRoB] [12qwerty345]
Язык                                     : Russian
Default                                  : Нет
Forced                                   : Нет
Меню
00:00:00.000                             : en:00:00:00.000
00:06:08.785                             : en:00:06:08.785
00:11:28.438                             : en:00:11:28.438
00:16:17.643                             : en:00:16:17.643
00:20:51.542                             : en:00:20:51.542
00:26:44.895                             : en:00:26:44.895
00:31:06.656                             : en:00:31:06.656
00:35:18.700                             : en:00:35:18.700
00:40:43.358                             : en:00:40:43.358
00:47:35.436                             : en:00:47:35.436
00:53:24.785                             : en:00:53:24.785
01:02:04.554                             : en:01:02:04.554
01:07:00.016                             : en:01:07:00.016
01:12:54.912                             : en:01:12:54.912
01:19:21.423                             : en:01:19:21.423
01:25:08.186                             : en:01:25:08.186

x264 Info

x264 [info]: frame I:1186 Avg QP:15.21 size:140927
x264 [info]: frame P:30150 Avg QP:16.63 size: 52519
x264 [info]: frame B:106828 Avg QP:18.38 size: 19952
x264 [info]: consecutive B-frames: 2.1% 2.4% 7.4% 24.1% 18.9% 37.1% 3.6% 1.3% 0.7% 0.5% 0.4% 0.8% 0.9%
Цитата: Русские субтитры набивал наркоман, поэтому они полностью пересобраны.

_________________
Показать сообщения:    

Текущее время: Сегодня 17:00

Часовой пояс: GMT



Вы не можете начинать темы
Вы не можете отвечать на сообщения
Вы не можете редактировать свои сообщения
Вы не можете удалять свои сообщения
Вы не можете голосовать в опросах
Вы не можете прикреплять файлы к сообщениям
Вы не можете скачивать файлы