Важное объявление!
У Нас Все раздачи мультитрекерные, при нуле пиров в релизах, можете смело вставать на закачку!
 
Автор Сообщение

HUNTER

Стаж:
4 года 4 месяца
Сообщений:
56755

Репутация: 101

[+] [-]
Вне форума [Профиль] [ЛС]

Возврат / The Returned
Страна: Испания, Канада
Жанр: ужасы, триллер, драма
Год выпуска: 2013
Продолжительность: 01:37:53
Перевод: Любительский (двухголосый закадровый) DeadSno & den904
Cубтитры: английские
Оригинальная аудиодорожка: английский
Режиссер: Мануэль Карбальо / Manuel Carballo
В ролях: Кристен Холден-Рид, Эмили Хэмпшир, Шон Дойл, Клаудия Бассольс, Паулино Нюнс, Мелина Мэтьюз, Пол Энтони, Бэрри Флэтмэн, Джэми Лайл, Эмили Алатало
Описание: Медсестра Кейт работает в госпитале для тех, кто оказался заражен вирусом, превращающим людей в зомби. Здесь пациентов лечат, возвращая их к нормальной жизни. Однако когда выясняется, что вакцина против вируса не всегда действует так, как на то рассчитывали врачи, принимается решение вернуть в госпиталь всех, кто проходил в нём лечение. Опасаясь за судьбу своего мужа Джейсона, который прошёл через процедуру Возврата, Кейт вместе с ним решается на побег, не подозревая, к чему это приведет...
Релиз группы:
Доп. информация:
Kinopoisk
IMDB
Сэмпл: http://multi-up.com/963708
Качество видео: BDRip 720p
Формат видео: MKV
Видео: MPEG4 Video (H264) 1280x544 24fps, 5 482 Kbps
Аудио: Dolby AC3 48000Hz 6ch 448kbps Russian
Аудио 2: DTS 6 ch 768 Kbps 48.0 KHz English
Формат субтитров: softsub (SRT)
Доп. информация о субтитрах: Отключаемые
Сохранены оригинальные чаптеры как на Blu-ray

MediaInfo

General
Unique ID : 215715955484443430259139047779936706927 (0xA24961BEA00B910098D72FED5FDB216F)
Complete name : \The.Returned.2013.Blu.Ray.720p.mkv
Format : Matroska
Format version : Version 4 / Version 2
File size : 4.67 GiB
Duration : 1h 37mn
Overall bit rate : 6 834 Kbps
Movie name : Release Group СПАМ
Encoded date : UTC 2014-03-31 18:44:57
Writing application : mkvmerge v6.8.0 ('Theme for Great Cities') 64bit built on Mar 2 2014 21:34:26
Writing library : libebml v1.3.0 libmatroska v1.4.1
Video
ID : 1
Format : AVC
Format/Info : Advanced Video Codec
Format profile : High@L4.1
Format settings, CABAC : Yes
Format settings, ReFrames : 5 frames
Codec ID : V_MPEG4/ISO/AVC
Duration : 1h 37mn
Bit rate : 5 482 Kbps
Width : 1 280 pixels
Height : 544 pixels
Display aspect ratio : 2.35:1
Frame rate mode : Constant
Frame rate : 24.000 fps
Color space : YUV
Chroma subsampling : 4:2:0
Bit depth : 8 bits
Scan type : Progressive
Bits/(Pixel*Frame) : 0.328
Stream size : 3.75 GiB (80%)
Title : Release Group СПАМ
Language : English
Default : Yes
Forced : No
Audio #1
ID : 2
Format : AC-3
Format/Info : Audio Coding 3
Mode extension : CM (complete main)
Format settings, Endianness : Big
Codec ID : A_AC3
Duration : 1h 37mn
Bit rate mode : Constant
Bit rate : 448 Kbps
Channel count : 6 channels
Channel positions : Front: L C R, Side: L R, LFE
Sampling rate : 48.0 KHz
Bit depth : 16 bits
Compression mode : Lossy
Stream size : 314 MiB (7%)
Title : Влад и Снежинка
Language : Russian
Default : Yes
Forced : Yes
Audio #2
ID : 3
Format : DTS
Format/Info : Digital Theater Systems
Mode : 16
Format settings, Endianness : Big
Codec ID : A_DTS
Duration : 1h 37mn
Bit rate mode : Constant
Bit rate : 768 Kbps
Channel count : 6 channels
Channel positions : Front: L C R, Side: L R, LFE
Sampling rate : 48.0 KHz
Bit depth : 24 bits
Compression mode : Lossy
Stream size : 538 MiB (11%)
Language : English
Default : No
Forced : No
Text
ID : 4
Format : UTF-8
Codec ID : S_TEXT/UTF8
Codec ID/Info : UTF-8 Plain Text
Language : English
Default : No
Forced : No
Menu
00:00:00.000 : en:00:00:00.000
00:08:15.833 : en:00:08:15.833
00:15:57.958 : en:00:15:57.958
00:24:25.667 : en:00:24:25.667
00:31:46.167 : en:00:31:46.167
00:39:19.667 : en:00:39:19.667
00:47:25.833 : en:00:47:25.833
00:55:44.625 : en:00:55:44.625
01:10:24.375 : en:01:10:24.375
01:17:47.208 : en:01:17:47.208
01:25:02.042 : en:01:25:02.042
01:32:38.542 : en:01:32:38.542

Скриншоты


_________________
Показать сообщения:    

Текущее время: Сегодня 09:01

Часовой пояс: GMT



Вы не можете начинать темы
Вы не можете отвечать на сообщения
Вы не можете редактировать свои сообщения
Вы не можете удалять свои сообщения
Вы не можете голосовать в опросах
Вы не можете прикреплять файлы к сообщениям
Вы не можете скачивать файлы