Важное объявление!
У Нас Все раздачи мультитрекерные, при нуле пиров в релизах, можете смело вставать на закачку!
 
Автор Сообщение

HUNTER

Стаж:
4 года 4 месяца
Сообщений:
56722

Репутация: 101

[+] [-]
Вне форума [Профиль] [ЛС]

Военный корабль США Морская гадюка / USS Seaviper-«A U.S. submarine is trapped below by a Japanese destroyer, and its crew holds a secret for the turning point of WW II»-
  • Год выпуска: 2012
  • Страна: США
  • Жанр: боевик, драма, военный, ...
  • Продолжительность: 01:32:29
  • Перевод: Любительский (одноголосый)
-
  • Режиссер: Ральф А. Виллани
  • Сценарий: Lynanne Rockhill
  • Продюсер: Роб Норрис, Michael Teutsch, Ральф А. Виллани, ...
  • Оператор: Jon Schellenger
  • Художник: Том Баузер, Лесли Уотерс
  • Монтаж: Greg Jocoy
- -
  • Описание: Немецкая подводная лодка U-234 осуществляет поставку важного военного груза японцам через Тихий океан из порта Кельна. Дизель-электрической подводной лодке ВМФ США Морская Гадюка дан приказ определить ее местонахождение и заблокировать транспортный коридор...
--
  • Бюджет: $3 000 000
-
    --
    • Рейтинг:
    --
    • Качество: HDRip
    • Формат: AVI
    • Видео кодек: XviD
    • Аудио кодеk: AC3
    • Видео: 720x368 (1.957:1), 23.976 fps, XviD, 1 662 Kbps
    • Аудио: Аудио #1: AC3, 448 Kbps, 44.1 KHz, 6 ch
    -

    МедиаИнфо

    Код: copyText_writeLink('this.parentNode.parentNode.nextSibling.nextSibling'); General
    Complete name : USS.Seaviper.2012.L1.HDRip.avi
    Format : AVI
    Format/Info : Audio Video Interleave
    File size : 1.37 GiB
    Duration : 1h 32mn
    Overall bit rate : 2 119 Kbps
    Writing application : VirtualDubMod 1.5.10.2 (build 2542/release)
    Writing library : VirtualDubMod build 2542/release
    Video
    ID : 0
    Format : MPEG-4 Visual
    Format profile : Advanced Simple@L5
    Format settings, BVOP : Yes
    Format settings, QPel : No
    Format settings, GMC : No warppoints
    Format settings, Matrix : Default (MPEG)
    Codec ID : XVID
    Codec ID/Hint : XviD
    Duration : 1h 32mn
    Bit rate : 1 662 Kbps
    Width : 720 pixels
    Height : 368 pixels
    Display aspect ratio : 1.957
    Frame rate : 23.976 fps
    Color space : YUV
    Chroma subsampling : 4:2:0
    Bit depth : 8 bits
    Scan type : Progressive
    Bits/(Pixel*Frame) : 0.262
    Stream size : 1.07 GiB (78%)
    Writing library : XviD 1.2.1 (UTC 2008-12-04)
    Audio
    ID : 1
    Format : AC-3
    Format/Info : Audio Coding 3
    Mode extension : CM (complete main)
    Codec ID : 2000
    Duration : 1h 32mn
    Bit rate mode : Constant
    Bit rate : 448 Kbps
    Channel(s) : 6 channels
    Channel positions : Front: L C R, Side: L R, LFE
    Sampling rate : 44.1 KHz
    Bit depth : 16 bits
    Stream size : 296 MiB (21%)
    Alignment : Split accross interleaves
    Interleave, duration : 42 ms (1.00 video frame)
    Interleave, preload duration : 500 ms

    Трейлер

    -© Оформление by www.rustorka.com- -Не уходите с раздачи, помогайте раздавать! Скачал сам, помоги скачать другим раздавая скачанное. Помните, что файлы раздачи размещены у других пользователей, таких же качающих или уже скачавших как и Вы, поэтому если кто-то удалит файлы и торрент-файл из клиента, то велика возможность того, что материалов раздачи не останется ни у кого и другие, такие же участники сети не смогут их скачать. Давайте начинать перемены с себя.-

    _________________
    Показать сообщения:    

    Текущее время: Сегодня 11:58

    Часовой пояс: GMT



    Вы не можете начинать темы
    Вы не можете отвечать на сообщения
    Вы не можете редактировать свои сообщения
    Вы не можете удалять свои сообщения
    Вы не можете голосовать в опросах
    Вы не можете прикреплять файлы к сообщениям
    Вы не можете скачивать файлы