Важное объявление!
У Нас Все раздачи мультитрекерные, при нуле пиров в релизах, можете смело вставать на закачку!
 
Автор Сообщение

HUNTER

Стаж:
4 года 4 месяца
Сообщений:
56765

Репутация: 101

[+] [-]
Вне форума [Профиль] [ЛС]

-
- -
-
-
-
Год выпуска: 2001
Выпущено: США, Новая Зеландия / New Line Cinema, WingNut Films
Жанр: фэнтези, приключения
Продолжительность: 03:48:17
Перевод: Профессиональный (полное дублирование) + вставки MVO Позитив на эпизодах Расширенной версии
Cубтитры: нет-Режиссер:
Питер Джексон / Peter Jackson-В ролях:
Элайджа Вуд (Frodo), Иэн МакКеллен (Gandalf), Вигго Мортенсен (Aragorn), Шон Бин (Boromir), Орландо Блум (Legolas), Джон Рис-Дэвис (Gimli), Иэн Холм (Bilbo), Шон Эстин (Sam), Билли Бойд (Pippin), Доминик Монахэн (Merry), Хьюго Уивинг (Elrond), Кейт Бланшетт (Galadriel), Лив Тайлер (Arwen), Кристофер Ли (Saruman), Энди Серкис (Gollum, озвучка)-Описание:
Сказания о Средиземье — это хроника Великой войны за Кольцо, войны, длившейся не одну тысячу лет. Тот, кто владел Кольцом, получал власть над всеми живыми тварями, но был обязан служить злу.
Тихая деревня, где живут хоббиты. Волшебник Гэндальф, придя на 111-й день рождения к своему старому другу Бильбо Бэггинсу, начинает вести разговор о кольце, которое Бильбо нашел много лет назад. Это кольцо принадлежало когда-то темному властителю Средиземья Саурону, и оно дает большую власть своему обладателю. Теперь Саурон хочет вернуть себе власть над Средиземьем. Бильбо отдает найденное кольцо своему племяннику Фродо, который пытается научиться справляться с тем страшным могуществом, которое дает ему кольцо…-| IMDB | КиноПоиск | Сэмпл |-Качество: BDRip [BDRemux | 1080p | Kinozal]
Формат: AVI
Видео: 720x304 (2.37:1), 23.976 fps, XviD build 67 ~1170 kbps avg, 0.22 bit/pixel
Аудио: 48 kHz, AC3 Dolby Digital, 2/0 (L,R) ch, ~192 kbps avg
-

Скриншоты

MediaInfo

Код:
Общее
Полное имя                               : D:\Vlastelin_Kolec_Bratstvo_Kolca_2001_BDRip_[Extended]_by_Dalemake.avi
Формат                                   : AVI
Формат/Информация                        : Audio Video Interleave
Профиль формата                          : OpenDML
Размер файла                             : 2,18 Гбайт
Продолжительность                        : 3 ч. 48 м.
Общий поток                              : 1370 Кбит/сек
Программа кодирования                    : VirtualDubMod 1.5.10.3 | www.virtualdub-fr.org || (build 2550/release)
Библиотека кодирования                   : VirtualDubMod build 2550/release
Видео
Идентификатор                            : 0
Формат                                   : MPEG-4 Visual
Профиль формата                          : Advanced Simple@L5
Параметр BVOP формата                    : 1
Параметр QPel формата                    : Нет
Параметр GMC формата                     : Без точки перехода
Параметр матрицы формата                 : Выборочная
Идентификатор кодека                     : XVID
Идентификатор кодека/Подсказка           : XviD
Продолжительность                        : 3 ч. 48 м.
Битрейт                                  : 1166 Кбит/сек
Ширина                                   : 720 пикселей
Высота                                   : 304 пикселя
Соотношение сторон                       : 2,35:1
Частота кадров                           : 23,976 кадра/сек
Цветовое пространство                    : YUV
Субдискретизация насыщенности            : 4:2:0
Битовая глубина                          : 8 бит
Тип развёртки                            : Прогрессивная
Метод сжатия                             : С потерями
Бит/(Пиксели*Кадры)                      : 0.222
Размер потока                            : 1,86 Гбайт (85%)
Библиотека кодирования                   : XviD 67
Аудио
Идентификатор                            : 1
Формат                                   : AC-3
Формат/Информация                        : Audio Coding 3
Расширение режима                        : CM (complete main)
Параметр Endianness формата              : Big
Идентификатор кодека                     : 2000
Продолжительность                        : 3 ч. 48 м.
Вид битрейта                             : Постоянный
Битрейт                                  : 192 Кбит/сек
Каналы                                   : 6 каналов
Расположение каналов                     : Front: L C R, Side: L R, LFE
Частота                                  : 48,0 КГц
Битовая глубина                          : 16 бит
Метод сжатия                             : С потерями
Размер потока                            : 314 Мбайт (14%)
Выравнивание                             : Разделение по промежуткам
Продолжительность промежутка             : 42  мс. (1,00 видеокадр)
Время предзагрузки промежутка            : 500  мс.
-
-
Год выпуска: 2002
Выпущено: США, Новая Зеландия / New Line Cinema, WingNut Films
Жанр: фэнтези, приключения
Продолжительность: 03:55:30
Перевод: Профессиональный (полное дублирование) + вставки MVO Позитив на эпизодах Расширенной версии
Cубтитры: нет-Режиссер:
Питер Джексон / Peter Jackson-В ролях:
Элайджа Вуд (Frodo), Шон Эстин (Sam), Орландо Блум (Legolas), Вигго Мортенсен (Aragorn), Иэн МакКеллен (Gandalf), Доминик Монахэн (Merry), Миранда Отто (Eowyn), Джон Рис-Дэвис (Gimli / Voice of Treebeard), Энди Серкис (Gollum), Билли Бойд (Pippin), Кристофер Ли (Saruman), Бернард Хилл (Theoden), Брэд Дуриф (Wormtongue)-Описание:
Братство распалось, но Кольцо Всевластья должно быть уничтожено. Фродо и Сэм вынуждены доверить свои жизни Голлуму, который взялся провести их к вратам Мордора. Громадная Армия Сарумана приближается: члены братства и их союзники готовы принять бой. Битва за Средиземье продолжается.-| IMDB | КиноПоиск | Сэмпл |-Качество: BDRip [BDRemux | 1080p | Kinozal]
Формат: AVI
Видео: 720x304 (2.37:1), 23.976 fps, XviD build 67 ~1128 kbps avg, 0.22 bit/pixel
Аудио: 48 kHz, AC3 Dolby Digital, 2/0 (L,R) ch, ~192 kbps avg
-

Скриншоты

MediaInfo

Код:
Общее
Полное имя                               : D:\Vlastelin_Kolec_Dve_Kreposti_2002_BDRip_[Extended]_by_Dalemake.avi
Формат                                   : AVI
Формат/Информация                        : Audio Video Interleave
Профиль формата                          : OpenDML
Размер файла                             : 2,18 Гбайт
Продолжительность                        : 3 ч. 55 м.
Общий поток                              : 1327 Кбит/сек
Программа кодирования                    : VirtualDubMod 1.5.10.3 | www.virtualdub-fr.org || (build 2550/release)
Библиотека кодирования                   : VirtualDubMod build 2550/release
Видео
Идентификатор                            : 0
Формат                                   : MPEG-4 Visual
Профиль формата                          : Advanced Simple@L5
Параметр BVOP формата                    : 1
Параметр QPel формата                    : Нет
Параметр GMC формата                     : Без точки перехода
Параметр матрицы формата                 : Выборочная
Идентификатор кодека                     : XVID
Идентификатор кодека/Подсказка           : XviD
Продолжительность                        : 3 ч. 55 м.
Битрейт                                  : 1123 Кбит/сек
Ширина                                   : 720 пикселей
Высота                                   : 304 пикселя
Соотношение сторон                       : 2,35:1
Частота кадров                           : 23,976 кадра/сек
Цветовое пространство                    : YUV
Субдискретизация насыщенности            : 4:2:0
Битовая глубина                          : 8 бит
Тип развёртки                            : Прогрессивная
Метод сжатия                             : С потерями
Бит/(Пиксели*Кадры)                      : 0.214
Размер потока                            : 1,85 Гбайт (85%)
Библиотека кодирования                   : XviD 67
Аудио
Идентификатор                            : 1
Формат                                   : AC-3
Формат/Информация                        : Audio Coding 3
Расширение режима                        : CM (complete main)
Параметр Endianness формата              : Big
Идентификатор кодека                     : 2000
Продолжительность                        : 3 ч. 55 м.
Вид битрейта                             : Постоянный
Битрейт                                  : 192 Кбит/сек
Каналы                                   : 2 канала
Расположение каналов                     : Front: L R
Частота                                  : 48,0 КГц
Битовая глубина                          : 16 бит
Метод сжатия                             : С потерями
Размер потока                            : 323 Мбайт (14%)
Выравнивание                             : Разделение по промежуткам
Продолжительность промежутка             : 42  мс. (1,00 видеокадр)
Время предзагрузки промежутка            : 500  мс.
-
-
Год выпуска: 2003
Выпущено: США, Новая Зеландия / New Line Cinema, WingNut Films
Жанр: фэнтези, приключения
Продолжительность: 04:23:15
Перевод: Профессиональный (полное дублирование) + вставки MVO Позитив на эпизодах Расширенной версии
Cубтитры: нет-Режиссер:
Питер Джексон / Peter Jackson-В ролях:
Элайджа Вуд (Frodo), Вигго Мортенсен (Aragorn), Шон Эстин (Sam), Иэн МакКеллен (Gandalf), Орландо Блум (Legolas), Доминик Монахэн (Merry), Билли Бойд (Pippin), Энди Серкис (Gollum / Smeagol), Миранда Отто (Eowyn), Бернард Хилл (Theoden), Карл Урбан (Eomer), Дэвид Уэнэм (Faramir), Хьюго Уивинг (Elrond)-Описание:
Последняя часть трилогии о Кольце Всевластия и о героях, взявших на себя бремя спасения Средиземья. Повелитель сил Тьмы Саурон направляет свои бесчисленные рати под стены Минас-Тирита, крепости Последней Надежды. Он предвкушает близкую победу, но именно это и мешает ему заметить две крохотные фигурки — хоббитов, приближающихся к Роковой Горе, где им предстоит уничтожить Кольцо Всевластия. Улыбнется ли им счастье?-| IMDB | КиноПоиск | Сэмпл |-Качество: BDRip [BDRemux | 1080p | Kinozal]
Формат: AVI
Видео: 720x304 (2.37:1), 23.976 fps, XviD build 67 ~989 kbps avg, 0.19 bit/pixel
Аудио: 48 kHz, AC3 Dolby Digital, 2/0 (L,R) ch, ~192 kbps avg
-

Скриншоты

MediaInfo

Код:
Общее
Полное имя                               : D:\Vlastelin_Kolec_Vozvrazchenie_Korolya_2003_BDRip_[Extended]_by_Dalemake.avi
Формат                                   : AVI
Формат/Информация                        : Audio Video Interleave
Профиль формата                          : OpenDML
Размер файла                             : 2,19 Гбайт
Продолжительность                        : 4 ч. 23 м.
Общий поток                              : 1188 Кбит/сек
Программа кодирования                    : VirtualDubMod 1.5.10.3 | www.virtualdub-fr.org || (build 2550/release)
Библиотека кодирования                   : VirtualDubMod build 2550/release
Видео
Идентификатор                            : 0
Формат                                   : MPEG-4 Visual
Профиль формата                          : Advanced Simple@L5
Параметр BVOP формата                    : 1
Параметр QPel формата                    : Нет
Параметр GMC формата                     : Без точки перехода
Параметр матрицы формата                 : Выборочная
Идентификатор кодека                     : XVID
Идентификатор кодека/Подсказка           : XviD
Продолжительность                        : 4 ч. 23 м.
Битрейт                                  : 984 Кбит/сек
Ширина                                   : 720 пикселей
Высота                                   : 304 пикселя
Соотношение сторон                       : 2,35:1
Частота кадров                           : 23,976 кадра/сек
Цветовое пространство                    : YUV
Субдискретизация насыщенности            : 4:2:0
Битовая глубина                          : 8 бит
Тип развёртки                            : Прогрессивная
Метод сжатия                             : С потерями
Бит/(Пиксели*Кадры)                      : 0.188
Размер потока                            : 1,81 Гбайт (83%)
Библиотека кодирования                   : XviD 67
Аудио
Идентификатор                            : 1
Формат                                   : AC-3
Формат/Информация                        : Audio Coding 3
Расширение режима                        : CM (complete main)
Параметр Endianness формата              : Big
Идентификатор кодека                     : 2000
Продолжительность                        : 4 ч. 23 м.
Вид битрейта                             : Постоянный
Битрейт                                  : 192 Кбит/сек
Каналы                                   : 2 канала
Расположение каналов                     : Front: L R
Частота                                  : 48,0 КГц
Битовая глубина                          : 16 бит
Метод сжатия                             : С потерями
Размер потока                            : 362 Мбайт (16%)
Выравнивание                             : Разделение по промежуткам
Продолжительность промежутка             : 42  мс. (1,00 видеокадр)
Время предзагрузки промежутка            : 500  мс.

-
-
-Релиз групп |
(2.18 Gb)
-

_________________
Показать сообщения:    

Текущее время: Сегодня 05:57

Часовой пояс: GMT



Вы не можете начинать темы
Вы не можете отвечать на сообщения
Вы не можете редактировать свои сообщения
Вы не можете удалять свои сообщения
Вы не можете голосовать в опросах
Вы не можете прикреплять файлы к сообщениям
Вы не можете скачивать файлы