Важное объявление!
У Нас Все раздачи мультитрекерные, при нуле пиров в релизах, можете смело вставать на закачку!
 
Автор Сообщение

HUNTER

Стаж:
4 года 4 месяца
Сообщений:
56808

Репутация: 101

[+] [-]
Вне форума [Профиль] [ЛС]

Властелин бобов: Великий поход Аттилы / Attila & The Great Blue Bean
-Страна: США / Морвиста Энтертеймент, МОДЕРН АНИМЭЙШН
Жанр: мультфильм
Продолжительность: 01:09:11
Год выпуска: 2006
Перевод: Профессиональный (многоголосый закадровый)
Cубтитры: русский
Оригинальная аудиодорожка: английский-Режиссер: Кент Баттерворф / Kent Butterworth
Роли озвучивали: Майкл Смит, Кэролайн Нельсон, Джон Э.Л.Салливан, Уолт Кубяк, Кент Баттерворф
Описание: Непобедимый вождь воинственных варваров, Аттила (которого тогда все называли Великим Свином из-за нежелания мыться и пользоваться туалетной бумагой) и прекрасная принцесса Гвен (которая лучше всех владела мечом и надувала пузыри из жевательной резинки) были непримиримыми врагами. Но когда придворный звездочет объявил, что они являются хранителями тайны Великого Голубого боба, Аттила и Гвен немедленно заключили священный союз и отправились на поиски Затерянной страны. Путь отважных искателей приключений пролегал через леса и горы, зыбучие пески и пещеры. Им предстояло встретиться с ведьмами, драконами и монстрами, сразиться с множеством врагов и даже разгадать тайну Сфинкса. Но никакие трудности не могли остановить наших героев!-
Качество: DVDRip-AVC / DVD5 R5 от Lizard Cinema Trade
Формат: MKV
Видео: 720x576@1024x576 (16:9), MPEG-4 AVC 2400 kbps / 25 fps / 16:9 / 0.231 bit/pix
Аудио 1: Russian: 48 kHz, AC3, 5/1 ch, 384.00 kbps
Аудио 2: English: 48 kHz, AC3, 2/0 ch, 224.00 kbps
Формат субтитров: SoftSub (srt)
Дополнительно: Фильм разбит на главы, как на оригинальном DVD диске.

MediaInfo

General
Format : Matroska
Format version : Version 4 / Version 2
File size : 1.46 GiB
Duration : 1h 9mn
Overall bit rate : 3 011 Kbps
Encoded date : UTC 2014-12-08 16:34:12
Writing application : mkvmerge v7.2.0 ('On Every Street') 64bit built on Sep 13 2014 15:52:10
Writing library : libebml v1.3.0 + libmatroska v1.4.1
DURATION : 01:07:03.439000000
NUMBER_OF_FRAMES : 703
NUMBER_OF_BYTES : 46481
_STATISTICS_WRITING_APP : mkvmerge v7.2.0 ('On Every Street') 64bit built on Sep 13 2014 15:52:10
_STATISTICS_WRITING_DATE_UTC : 2014-12-08 16:34:12
_STATISTICS_TAGS : BPS DURATION NUMBER_OF_FRAMES NUMBER_OF_BYTES
Video
ID : 1
Format : AVC
Format/Info : Advanced Video Codec
Format profile : High@L4.1
Format settings, CABAC : Yes
Format settings, ReFrames : 8 frames
Codec ID : V_MPEG4/ISO/AVC
Duration : 1h 9mn
Bit rate : 2 400 Kbps
Width : 720 pixels
Height : 576 pixels
Display aspect ratio : 16:9
Frame rate mode : Constant
Frame rate : 25.000 fps
Standard : PAL
Color space : YUV
Chroma subsampling : 4:2:0
Bit depth : 8 bits
Scan type : Progressive
Bits/(Pixel*Frame) : 0.231
Stream size : 1.13 GiB (78%)
Writing library : x264 core 138 r2356 a1d3d17
Encoding settings : cabac=1 / ref=8 / deblock=1:-2:-1 / analyse=0x3:0x113 / me=umh / subme=10 / psy=1 / psy_rd=1.00:0.05 / mixed_ref=1 / me_range=32 / chroma_me=1 / trellis=2 / 8x8dct=1 / cqm=0 / deadzone=21,11 / fast_pskip=0 / chroma_qp_offset=-3 / threads=9 / lookahead_threads=1 / sliced_threads=0 / nr=0 / decimate=0 / interlaced=0 / bluray_compat=0 / constrained_intra=0 / bframes=8 / b_pyramid=2 / b_adapt=2 / b_bias=0 / direct=3 / weightb=1 / open_gop=0 / weightp=2 / keyint=250 / keyint_min=25 / scenecut=40 / intra_refresh=0 / rc=2pass / mbtree=0 / bitrate=2400 / ratetol=1.0 / qcomp=0.60 / qpmin=0 / qpmax=69 / qpstep=4 / cplxblur=20.0 / qblur=0.5 / ip_ratio=1.40 / pb_ratio=1.30 / aq=1:1.00
Language : English
Default : Yes
Forced : No
Audio #1
ID : 2
Format : AC-3
Format/Info : Audio Coding 3
Mode extension : CM (complete main)
Format settings, Endianness : Big
Codec ID : A_AC3
Duration : 1h 9mn
Bit rate mode : Constant
Bit rate : 384 Kbps
Channel(s) : 6 channels
Channel positions : Front: L C R, Side: L R, LFE
Sampling rate : 48.0 KHz
Bit depth : 16 bits
Compression mode : Lossy
Stream size : 190 MiB (13%)
Language : Russian
Default : Yes
Forced : No
Audio #2
ID : 3
Format : AC-3
Format/Info : Audio Coding 3
Mode extension : CM (complete main)
Format settings, Endianness : Big
Codec ID : A_AC3
Duration : 1h 9mn
Bit rate mode : Constant
Bit rate : 224 Kbps
Channel(s) : 2 channels
Channel positions : Front: L R
Sampling rate : 48.0 KHz
Bit depth : 16 bits
Compression mode : Lossy
Stream size : 111 MiB (7%)
Language : English
Default : No
Forced : No
Text
ID : 4
Format : UTF-8
Codec ID : S_TEXT/UTF8
Codec ID/Info : UTF-8 Plain Text
Language : Russian
Default : No
Forced : No
Menu
00:00:00.000 : en:00:00:00.000
00:06:00.440 : en:00:06:00.440
00:10:50.960 : en:00:10:50.960
00:16:40.120 : en:00:16:40.120
00:22:06.280 : en:00:22:06.280
00:27:41.200 : en:00:27:41.200
00:33:02.400 : en:00:33:02.400
00:39:04.400 : en:00:39:04.400
00:44:22.080 : en:00:44:22.080
00:50:04.960 : en:00:50:04.960
00:55:00.840 : en:00:55:00.840
01:01:14.160 : en:01:01:14.160

Скриншоты:


_________________
Показать сообщения:    

Текущее время: Сегодня 08:47

Часовой пояс: GMT



Вы не можете начинать темы
Вы не можете отвечать на сообщения
Вы не можете редактировать свои сообщения
Вы не можете удалять свои сообщения
Вы не можете голосовать в опросах
Вы не можете прикреплять файлы к сообщениям
Вы не можете скачивать файлы