Важное объявление!
У Нас Все раздачи мультитрекерные, при нуле пиров в релизах, можете смело вставать на закачку!
 
Автор Сообщение

HUNTER

Стаж:
4 года 4 месяца
Сообщений:
56790

Репутация: 101

[+] [-]
Вне форума [Профиль] [ЛС]

Владимир Высоцкий. Песни о войне
Год выпуска: 2013
Страна: Россия
Жанр: Документальный, авторская песня
Продолжительность: 00:39:57
Перевод: Не требуется
Русские субтитры: нет
Режиссер: Сергей Нейлау
Описание: Высоцкий не любил вспоминать о военном детстве. О том, как на фронт уходили отец и оба дяди. О холоде и голоде, возвращении из эвакуации в пустой, сгоревший дом на Таганке... Вся эта боль - семьи, соседей, друзей, страны - в его песнях. Фронтовики отказывались верить в то, что Высоцкий не воевал. Говорили, в его стихах детали и ощущения, которые мог знать только человек, лично прошедший войну. Его пронзительные тексты до сих пор актуальны. Что сам Владимир Семенович говорил о своем творчестве? В фильме - редкие кадры из интервью Высоцкого журналистам разных стран, воспоминания Никиты Высоцкого об отце и, конечно, незабываемые песни о войне.
качество: SATRip
формат: AVI
видеокодек: XviD
аудиокодек: MP3
Видео: 704x528 (1.33:1), 25 fps, XviD build 50, 1594 kbps avg, 0.17 bit/pixel
Аудио: MPEG Layer 3, 48 kHz, 2 ch, 128.00 kbps avg

MediaInfo

Общее
Полное имя : C:\Фильмы\Владимир Высоцкий. Песни о войне.2013.SATRip.avi
Формат : AVI
Формат/Информация : Audio Video Interleave
Размер файла : 495 Мбайт
Продолжительность : 39 м.
Общий поток : 1732 Кбит/сек
Программа кодирования : VirtualDubMod 1.5.10.3 | www.virtualdub-fr.org || (build 2550/release)
Библиотека кодирования : VirtualDubMod build 2550/release
Видео
Идентификатор : 0
Формат : MPEG-4 Visual
Профиль формата : Advanced Simple@L5
Параметр BVOP формата : 2
Параметр QPel формата : Нет
Параметр GMC формата : Без точки перехода
Параметр матрицы формата : Default (MPEG)
Идентификатор кодека : XVID
Идентификатор кодека/Подсказка : XviD
Продолжительность : 39 м.
Битрейт : 1594 Кбит/сек
Ширина : 704 пикселя
Высота : 528 пикселей
Соотношение сторон : 4:3
Частота кадров : 25,000 кадров/сек
Цветовое пространство : YUV
Субдискретизация насыщенности : 4:2:0
Битовая глубина : 8 бит
Тип развёртки : Прогрессивная
Метод сжатия : С потерями
Бит/(Пиксели*Кадры) : 0.172
Размер потока : 456 Мбайт (92%)
Библиотека кодирования : XviD 1.2.1 (UTC 2008-12-04)
Аудио
Идентификатор : 1
Формат : MPEG Audio
Версия формата : Version 1
Профиль формата : Layer 3
Идентификатор кодека : 55
Идентификатор кодека/Подсказка : MP3
Продолжительность : 39 м.
Вид битрейта : Постоянный
Битрейт : 128 Кбит/сек
Каналы : 2 канала
Частота : 48,0 КГц
Метод сжатия : С потерями
Размер потока : 36,6 Мбайт (7%)
Выравнивание : Соединение по промежуткам
Продолжительность промежутка : 40 мс. (1,00 видеокадр)
Время предзагрузки промежутка : 504 мс.
Библиотека кодирования : LAME3.99r
Настройки программы : -m s -V 4 -q 2 -lowpass 17 -b 128

Скриншоты


_________________
Показать сообщения:    

Текущее время: Сегодня 14:04

Часовой пояс: GMT



Вы не можете начинать темы
Вы не можете отвечать на сообщения
Вы не можете редактировать свои сообщения
Вы не можете удалять свои сообщения
Вы не можете голосовать в опросах
Вы не можете прикреплять файлы к сообщениям
Вы не можете скачивать файлы