Важное объявление!
У Нас Все раздачи мультитрекерные, при нуле пиров в релизах, можете смело вставать на закачку!
 
Автор Сообщение

HUNTER

Стаж:
4 года 4 месяца
Сообщений:
56722

Репутация: 101

[+] [-]
Вне форума [Профиль] [ЛС]

Владимир Chillyred Козлов - курс "Кого хочет женщина" [2011, пикап, DVD]
Страна: Россия
Год выпуска: 2011
Продолжительность: 11:00:00
Перевод: Не требуется
Русские субтитры: нет
Описание: Коробочный курс от создателя тренинг центра Maxicoach - Владимира Козлова. Курс очень сильный и хороший, в интнернете его нет, думаю многие будут рады увидеть этот контент наконец, тем более, что сам автор уже давно ушел со сцены. К сожалению, дополнительной информации (постеров и прочего) больше не сохранилось.

Содержание

Диск 1
- Как получить максимум от тренинга
- Ментальные ловушки
- Категории
- Цели
- Суть отказа
- Устали от отношений?
Диск 2
- Вступление
- Честность с самим собой
- Формула Успеха
- Сила вопросов
- Инверсия ролей
- Состояния. Уверенное спокойствие
- Состояние. Ведение
- Состояния. Социальная востребованность
- Состояния. Недоступность
- Состояния. Глубина
- Понимание
- Зачем это нужно?
Диск 3
- Принятие решений мужчинами
- Принятие решений женщинами
- Прямой подход
- Контекстуальный подход
- Волшебные таблетки
Диск 4
- Контекст
- Контекст по месту
- Контекст по мыслям
- Социально-адекватный контекст
- Ассоциативный контекст
- Контекст о ней
- Контекстный комментарий
Диск 5
- Типичные ошибки
- Комплименты
- Бесполезность доказывать
- Конгруэнтность
- Излишняя настойчивость
- Отжиг
- Оценка действий
- Бонус
- Красный канатик
- Контекстное начало разговора
Диск 6
- Теория "коробки передач"
- 1-ая передача: Невербальная заинтересованность
- Волшебные таблетки
- Шаблоны историй
Диск 7
- Вторая передача: Социальная заинтересованность
- Теория ПС
- Примеры ПС
- Примеры ПС автолюбителям
- Эффект звезды
- ПС на основе "дельты"
- Инициатива
- Эмоциональные ПС
- Несколько интересных ПС
- Отношения с мужчинами
- Отношения с девушками
- Эмоции
Диск 8
- Третья передача: Личная заинтересованность
- Язык тела
- Энергетические уровни в соблазнении
Диск 9
- Система
- 4 передача
- Раскрываться самому
- Соблазнение мечтой
- Внутреннее через внешнее
- Метафора действия
- Визуализация
- Глубокий комплимент
- Глубина в моменте
Диск 10
- Виды девушек
- Девушка на голове
- Ложная интуиция
- Девушка "на душе"
- Девушка "на теле"
- Говорим из разных центров
Диск 11
- Разговор о секс: 5-ая передача
- Интегральная теория: Стратегия прикосновений
- Выход на поцелуй
- Прощание
Качество видео: DVD5
Формат видео: VOB

MediaInfo

Видео
Идентификатор : 224 (0xE0)
Формат : MPEG Video
Версия формата : Version 2
Профиль формата : Main@Main
Параметр BVOP формата : Да
Параметр матрицы формата : Выборочная
Параметр GOP формата : M=3, N=12
Format_Settings_PictureStructure : Frame
Продолжительность : 14 м.
Вид битрейта : Переменный
Битрейт : 8965 Кбит/сек
Максимальный битрейт : 9100 Кбит/сек
Ширина : 720 пикселей
Высота : 576 пикселей
Соотношение сторон : 16:9
Частота кадров : 25,000 кадров/сек
Стандарт вещания : PAL
Цветовое пространство : YUV
Субдискретизация насыщенности : 4:2:0
Битовая глубина : 8 бит
Тип развёртки : Чересстрочная
Порядок развёртки : Верхнее поле первое
Метод сжатия : С потерями
Бит/(Пиксели*Кадры) : 0.865
Временной код первого кадра : 00:00:00:00
Оригинал временного кода : Group of pictures header
Размер потока : 960 Мбайт (96%)
Библиотека кодирования : (c) 1998-2008 Womble Multimedia, Inc. / MPEG Video Wizard (08/2008) / Dec 31 2008
Аудио
Идентификатор : 189 (0xBD)-128 (0x80)
Формат : AC-3
Формат/Информация : Audio Coding 3
Расширение режима : CM (complete main)
Параметр Endianness формата : Big
Режим смешивания : DVD-Video
Продолжительность : 14 м.
Вид битрейта : Постоянный
Битрейт : 192 Кбит/сек
Каналы : 2 канала
Расположение каналов : Front: L R
Частота : 48,0 КГц
Битовая глубина : 16 бит
Метод сжатия : С потерями
Размер потока : 20,5 Мбайт (2%)

Скриншоты




_________________
Показать сообщения:    

Текущее время: Сегодня 09:59

Часовой пояс: GMT



Вы не можете начинать темы
Вы не можете отвечать на сообщения
Вы не можете редактировать свои сообщения
Вы не можете удалять свои сообщения
Вы не можете голосовать в опросах
Вы не можете прикреплять файлы к сообщениям
Вы не можете скачивать файлы