Важное объявление!
У Нас Все раздачи мультитрекерные, при нуле пиров в релизах, можете смело вставать на закачку!
 
Автор Сообщение

HUNTER

Стаж:
4 года 4 месяца
Сообщений:
56722

Репутация: 101

[+] [-]
Вне форума [Профиль] [ЛС]

Вкус ночи / Wir sind die Nacht«Перевернуть мир ради вечной любви»
Страна: Германия
Жанр: ужасы, фэнтези, драма, мелодрама
Год выпуска: 2010
Продолжительность: 01:35:42
Перевод: Профессиональный (дублированный)
Cубтитры: нет
Режиссер: Деннис Ганзель / Dennis Gansel
В ролях: Каролина Херфурт, Нина Хосс, Дженнифер Ульрих, Анна Фишер, Макс Римельт, Арвед Бирнбаум, Штеффи Кюнерт, Йохен Никель, Иван Шведов, Николас Ромм
Описание: Лина — трудный подросток, она не находит общего языка с родителями и сверстниками, промышляет мелким воровством. Однажды, пробравшись на закрытую вечеринку, она знакомится с богатой и эффектной Луизой — вампиром, главенствующим в трио себе подобных существ, куда также входят бесшабашная Нора и томная Шарлотта. Луиза решает приобщить закомплексованную и зажатую девушку к своей банде. Теперь Лине суждено познать блеск и проклятие вечной жизни «неупокоенных». Перед ней открываются все двери в мир гламура и беспредельной свободы. И с каждой ночью ее новые подруги становятся все ненасытнее, а число жертв вурдалаков безудержно растет. Но когда за расследование их преступлений берется давний знакомый Лины — молодой полицейский Том Сернер, приходит пора платить по счетам…
Сэмпл: http://rusfolder.com/42071123

Тип релиза: HDTV 1080i
Контейнер: TS
Видео: AVC/H.264, PAL, 1920х1080 (16:9), 25 fps, 7071 kbps
Аудио: русский, MP-2, 48000 Hz, 192 Кбит/сек, 2 ch

MediaInfo

Общее
Идентификатор : 1 (0x1)
Полное имя : D:\Вкус ночи.ts
Формат : MPEG-TS
Размер файла : 5,11 Гбайт
Продолжительность : 1 ч. 35 м.
Режим общего битрейта : Переменный
Общий поток : 7642 Кбит/сек
Максимальный общий битрейт : 35,5 Мбит/сек
Видео
Идентификатор : 4113 (0x1011)
Идентификатор меню : 1 (0x1)
Формат : AVC
Формат/Информация : Advanced Video Codec
Профиль формата : Main@L4.0
Параметр CABAC формата : Да
Параметр ReFrames формата : 3 кадра
Идентификатор кодека : 27
Продолжительность : 1 ч. 35 м.
Вид битрейта : Переменный
Битрейт : 7071 Кбит/сек
Максимальный битрейт : 40,0 Мбит/сек
Ширина : 1920 пикселей
Высота : 1080 пикселей
Соотношение сторон : 16:9
Частота кадров : 25,000 кадров/сек
Стандарт вещания : Component
Цветовое пространство : YUV
Субдискретизация насыщенности : 4:2:0
Битовая глубина : 8 бит
Тип развёртки : Чересстрочная
Порядок развёртки : Верхнее поле первое
Бит/(Пиксели*Кадры) : 0.136
Размер потока : 4,73 Гбайт (93%)
Аудио
Идентификатор : 4352 (0x1100)
Идентификатор меню : 1 (0x1)
Формат : MPEG Audio
Версия формата : Version 1
Профиль формата : Layer 2
Идентификатор кодека : 4
Продолжительность : 1 ч. 35 м.
Вид битрейта : Постоянный
Битрейт : 192 Кбит/сек
Каналы : 2 канала
Частота : 48,0 КГц
Метод сжатия : С потерями
Размер потока : 131 Мбайт (3%)
Язык : Russian

Скриншот c названием фильма

Скриншоты



_________________
Показать сообщения:    

Текущее время: Сегодня 17:38

Часовой пояс: GMT



Вы не можете начинать темы
Вы не можете отвечать на сообщения
Вы не можете редактировать свои сообщения
Вы не можете удалять свои сообщения
Вы не можете голосовать в опросах
Вы не можете прикреплять файлы к сообщениям
Вы не можете скачивать файлы