Важное объявление!
У Нас Все раздачи мультитрекерные, при нуле пиров в релизах, можете смело вставать на закачку!
 
Автор Сообщение

HUNTER

Стаж:
4 года 4 месяца
Сообщений:
56848

Репутация: 101

[+] [-]
Вне форума [Профиль] [ЛС]

-
Год выпуска: 2014
Страна: Япония
Жанр: комедия, сёдзё-ай
Продолжительность: ТВ-сериал, 12 эп. по 24 мин.
Выпуск: c 10.01.2014 по 28.03.2014-Перевод:
  • русские субтитры от LeoDreaM & Усатый Ня (полные/вспомогательные)
-Режиссер: Исигура Кэнъити
Студия: Studio DEEN-Описание:
Западная старшая школа Мисато закрывается, объявлен последний набор в ее первые (по-нашему десятые) классы. Ребятам, поступившим в это время, не повезло – с каждым выпуском родная школа будет пустеть, уже не придут младшие товарищи, и, наконец, они останутся одни. Что же сделать, чтобы чудесные школьные годы запомнились навсегда и заставили сердце трепетать каждый раз, когда сакура зацветет вновь? Для давних подружек, романтичной Харуки Такаямы и практичной Ю Соноды ответ ясен – надо идти вперед и совершить нечто необычное, что они давно желали со времен средней школы. Например, поцеловаться!
Как вы уже догадались, главным героиням понравилось, и они стали развивать свои отношения, открывая новые грани крепкой девичьей дружбы. Конечно, то, что можно скрыть от строгой старшей сестры Ю, не утаишь от соседок-одноклассниц, но они как раз нормально отнеслись к необычной парочке. Кстати, скромница Сидзуку и ее веселая кузина Котонэ оказались из того же теста, и кто кого опередил – еще большой вопрос. В общем, староста класса Каэдэ и ее лучшая подруга Юдзу остались единственными нормальными из тесной компании – им и отбиваться от президента школьного Совета Мицуки Соноды, которая заподозрила, что с младшей сестренкой явно что-то не так!
© Hollow, World Art
Дословно название сериала значит «Проделки сакуры». Каждая серия называется «Проделка №…» и делится на части А и В.-Информационные ссылки: AniDB || World Art || MAL-Качество: BDRip
Энкод: Winter - RG Pantheon
Тип видео: без хардсаба, без линковки
Формат: mkv
Видео: x264 (Hi10p), 1280x720, ~3000 Kbps, 23.976 fps
Аудио JAP: Vorbis, 48000Hz, ~256 Kbps, 2ch
Аудио RUS: AC3, 48000Hz, ~192 Kbps, 2ch (внешними файлами)-

Список озвучек в раздаче

  • одноголосая (жен.) от Kin

Список эпизодов

01. Cherry Blossom-Colored Beginning / Yakisoba, Verandas, and Girls
02. Yet Another Cherry Blossom Color / After School with Harry-chan

Скриншоты


Подробные тех. данные

Общее
Уникальный идентификатор : 228179367387810335522537656661940966751 (0xABA9BF64F7034CB7AB48BD263165155F)
Полное имя : Z:\Anime\720p\Sakura Trick [BD] [720p]\[Winter] Sakura Trick 01 [BDrip 1280x720 x264 Vorbis].mkv
Формат : Matroska
Версия формата : Version 2
Размер файла : 564 Мбайт
Продолжительность : 24 м.
Режим общего битрейта : Переменный
Общий поток : 3258 Кбит/сек
Дата кодирования : UTC 2014-03-25 16:47:40
Программа кодирования : mkvmerge v2.9.8 ('C'est le bon') built on Aug 13 2009 12:49:06
Библиотека кодирования : libebml v0.7.7 + libmatroska v0.8.1
Видео
Идентификатор : 1
Формат : AVC
Формат/Информация : Advanced Video Codec
Профиль формата : High 10@L4.1
Параметр CABAC формата : Да
Параметр ReFrames формата : 9 кадров
Идентификатор кодека : V_MPEG4/ISO/AVC
Продолжительность : 24 м.
Битрейт : 2937 Кбит/сек
Ширина : 1280 пикселей
Высота : 720 пикселей
Соотношение сторон : 16:9
Режим частоты кадров : Постоянный
Частота кадров : 23,976 кадра/сек
Цветовое пространство : YUV
Субдискретизация насыщенности : 4:2:0
Битовая глубина : 10 бит
Тип развёртки : Прогрессивная
Бит/(Пиксели*Кадры) : 0.133
Размер потока : 509 Мбайт (90%)
Библиотека кодирования : x264 core 132 r2309 3b1f1f7
Настройки программы : cabac=1 / ref=9 / deblock=1:-2:-2 / analyse=0x3:0x133 / me=umh / subme=9 / psy=1 / psy_rd=0.90:0.00 / mixed_ref=1 / me_range=24 / chroma_me=1 / trellis=2 / 8x8dct=1 / cqm=0 / deadzone=21,11 / fast_pskip=1 / chroma_qp_offset=-2 / threads=12 / lookahead_threads=2 / sliced_threads=0 / nr=0 / decimate=0 / interlaced=0 / bluray_compat=0 / constrained_intra=0 / bframes=8 / b_pyramid=2 / b_adapt=2 / b_bias=0 / direct=1 / weightb=1 / open_gop=0 / weightp=2 / keyint=250 / keyint_min=23 / scenecut=40 / intra_refresh=0 / rc=crf / mbtree=0 / crf=15.7 / qcomp=0.70 / qpmin=9 / qpmax=40 / qpstep=4 / ip_ratio=1.40 / pb_ratio=1.30 / aq=1:0.90
Default : Нет
Forced : Нет
Аудио
Идентификатор : 2
Формат : Vorbis
Параметр Floor формата : 1
Идентификатор кодека : A_VORBIS
Продолжительность : 24 м.
Вид битрейта : Переменный
Битрейт : 256 Кбит/сек
Каналы : 2 канала
Частота : 48,0 КГц
Метод сжатия : С потерями
Размер потока : 44,3 Мбайт (8%)
Библиотека кодирования : libVorbis 1.0 (UTC 2002-07-17)
Язык : Japanese
Default : Да
Forced : Нет
- -

Информация о релизе

  • Выбор видео, перевода, озвучки, а также типа сборки материала осуществляется релизером и не подлежит обсуждению. Если вы считаете, что раздаваемый материал противоречит правилам раздела "Аниме" rutracker.org, сообщите об этом одному из модераторов раздела.
  • В случае появления нового материала или же лучшего по качеству материала релизер оставляет за собой право обновить раздачу. В этом случае вам необходимо ознакомиться с изменениями (добавлениями) и перекачать торрент.
  • Данный релиз предназначен для просмотра на ПК. Воспроизведение на иных проигрывателях не гарантируется. Для просмотра рекомендуется Media Player Classic с установленным пакетом кодеков K-Lite.
  • Данный релиз содержит 10-битное видео (Hi10p). Для корректного воспроизведения обязательно используйте кодеки, поддерживающие 10-битное видео.
    Обсудить частные случаи проблем с воспроизведением и получить дополнительную информацию можно здесь.

  • Данный релиз предназначен для просмотра с внешними субтитрами и внешними звуковыми дорожками.
    • Для просмотра с внешней звуковой дорожкой нужно:
      перекинуть файлы .mka из папки "RUS Sound [<автор(ы) озвучки>]" в одну папку с видео и переключить звуковую дорожку в плеере при просмотре. Как это сделать в разных плеерах подробно описано здесь.

    • Для просмотра с субтитрами нужно:
      перекинуть файлы .ass из папки "RUS Subtitles [<автор(ы) перевода>]" в одну папку с видео - плеер подгрузит их автоматически при открытии видео.
  • Если у вас возникли проблемы с просмотром, не связанные с описанным выше, сообщите о них автору раздачи посредством сообщения в теме или ЛС Aglenn.

_________________
Показать сообщения:    

Текущее время: Сегодня 22:52

Часовой пояс: GMT



Вы не можете начинать темы
Вы не можете отвечать на сообщения
Вы не можете редактировать свои сообщения
Вы не можете удалять свои сообщения
Вы не можете голосовать в опросах
Вы не можете прикреплять файлы к сообщениям
Вы не можете скачивать файлы
Наши партнеры: интернет магазин Ивановского трикотажа textilla.ru