Важное объявление!
У Нас Все раздачи мультитрекерные, при нуле пиров в релизах, можете смело вставать на закачку!
 
Автор Сообщение

HUNTER

Стаж:
4 года 4 месяца
Сообщений:
56733

Репутация: 101

[+] [-]
Вне форума [Профиль] [ЛС]

Виноваты звездыThe Fault in Our Stars«One sick love story»-
Страна: США
Жанр: драма, мелодрама
Год выпуска: 2014
Продолжительность: 02:13:17-Перевод: Одноголосый, закадровый (А. Матвеев)
Оригинальная дорожка: английская
Субтитры: нет
Режиссер: Джош Бун / Josh Boone
В ролях: Шейлин Вудли, Энсел Эльгорт, Лора Дерн, Сэм Трэммелл, Нат Вулф, Уиллем Дефо, Лотте Вербеек, Ана Дела Крус, Рэнди Ковиц. Тони Саладна-Описание: Хэйзел больна раком. Несмотря на то, что болезнь временно отступила, девушка не чувствует ни капли радости. Она ходит в группу поддержки, где однажды знакомится с Августом Уотерсом и моментально влюбляется в него. Август и Хэйзел отправляются в полное страсти и жизни путешествие, которое лишний раз покажет им, что весь смысл жизни можно найти в любом ее отрезке.-
MPAA: PG-13 - Детям до 13 лет просмотр не желателен-Качество: WEB-DL 720p | sample
Контейнер: MKV
Видео: AVC, 1280x688 (1.860), 3987 kbps, 23,976 fps, 0,189 bpp
Аудио №1: русский / AC3 / 5.1 / 48 kHz / 384 kbps / 16 bit ||
Аудио №2: английский / AC3 / 5.1 / 48 kHz / 384 kbps / 16 bit
Навигация по главам: есть-

Скриншоты

Media Info

General
Unique ID : 195409856258221754152165812357044322482 (0x930291C18D2EF58693E3AAE0B49F40B2)
Complete name : E:\The.Fault.in.Our.Stars.2014.EXTENDED.720p.WEB-DL.mkv
Format : Matroska
Format version : Version 2
File size : 4.52 GiB
Duration : 2h 13mn
Overall bit rate : 4 852 Kbps
Encoded date : UTC 2014-08-19 14:29:59
Writing application : mkvmerge v5.2.0 ('I can't explain') built on Dec 18 2011 18:12:03
Writing library : libebml v1.2.3 + libmatroska v1.3.0
Video
ID : 1
Format : AVC
Format/Info : Advanced Video Codec
Format profile : High@L3.1
Format settings, CABAC : No
Format settings, ReFrames : 2 frames
Codec ID : V_MPEG4/ISO/AVC
Duration : 2h 13mn
Bit rate : 3 987 Kbps
Width : 1 280 pixels
Height : 688 pixels
Display aspect ratio : 1.860
Frame rate : 23.976 fps
Color space : YUV
Chroma subsampling : 4:2:0
Bit depth : 8 bits
Scan type : Progressive
Bits/(Pixel*Frame) : 0.189
Stream size : 3.71 GiB (82%)
Language : English
Default : Yes
Forced : No
Color primaries : BT.709-5, BT.1361, IEC 61966-2-4, SMPTE RP177
Transfer characteristics : BT.709-5, BT.1361
Matrix coefficients : BT.709-5, BT.1361, IEC 61966-2-4 709, SMPTE RP177
Audio #1
ID : 2
Format : AC-3
Format/Info : Audio Coding 3
Mode extension : CM (complete main)
Codec ID : A_AC3
Duration : 2h 13mn
Bit rate mode : Constant
Bit rate : 384 Kbps
Channel(s) : 6 channels
Channel positions : Front: L C R, Side: L R, LFE
Sampling rate : 48.0 KHz
Bit depth : 16 bits
Compression mode : Lossy
Stream size : 366 MiB (8%)
Title : VO, А.Матвеев
Language : Russian
Default : Yes
Forced : No
Audio #2
ID : 3
Format : AC-3
Format/Info : Audio Coding 3
Mode extension : CM (complete main)
Codec ID : A_AC3
Duration : 2h 13mn
Bit rate mode : Constant
Bit rate : 384 Kbps
Channel(s) : 6 channels
Channel positions : Front: L C R, Side: L R, LFE
Sampling rate : 48.0 KHz
Bit depth : 16 bits
Compression mode : Lossy
Stream size : 366 MiB (8%)
Language : English
Default : No
Forced : No
Menu
00:00:00.000 : en:1
00:02:34.000 : en:2
00:06:25.000 : en:3
00:13:01.000 : en:4
00:15:06.000 : en:5
00:18:11.000 : en:6
00:21:04.000 : en:7
00:24:58.000 : en:8
00:28:33.000 : en:9
00:31:28.000 : en:10
00:38:10.000 : en:11
00:41:48.000 : en:12
00:49:16.000 : en:13
00:56:38.000 : en:14
01:02:23.000 : en:15
01:05:37.000 : en:16
01:08:13.000 : en:17
01:14:53.000 : en:18
01:20:53.000 : en:19
01:25:25.000 : en:20
01:28:58.000 : en:21
01:34:44.000 : en:22
01:43:52.000 : en:23
01:46:20.000 : en:24
01:52:11.000 : en:25
01:57:18.000 : en:26
02:01:02.000 : en:27
02:06:08.000 : en:28

_________________
Показать сообщения:    

Текущее время: Сегодня 04:46

Часовой пояс: GMT



Вы не можете начинать темы
Вы не можете отвечать на сообщения
Вы не можете редактировать свои сообщения
Вы не можете удалять свои сообщения
Вы не можете голосовать в опросах
Вы не можете прикреплять файлы к сообщениям
Вы не можете скачивать файлы