Важное объявление!
У Нас Все раздачи мультитрекерные, при нуле пиров в релизах, можете смело вставать на закачку!
 
Автор Сообщение

HUNTER

Стаж:
4 года 4 месяца
Сообщений:
56848

Репутация: 101

[+] [-]
Вне форума [Профиль] [ЛС]

Винни Пух: Рождественский Пух / Медвежонок Винни. С Новым Медом! / Winnie the Pooh: A Very Merry Pooh Year
Страна: США
Жанр: мультфильм, семейный
Продолжительность: 01:03:52
Год выпуска: 2002
Перевод 1: Профессиональный (дублированный) Невафильм
Перевод 2: Профессиональный (двухголосый закадровый) П. Глац и Т. Казакова
Оригинальная аудиодорожка: Есть (eng)
Русские субтитры: нет
Семпл: Скачать-Режиссёр: Тед Хеннинг / Ted Henning, Карл Джеерс / Karl Geurs-Роли озвучивали: Винни - Владимир Баранов (Jim Cummings)
Рассказчик - Валерий Никитенко (Michael York)
Хрюня - Андрей Матвеев (John Fiedler )
Кролик - Георгий Корольчук (Ken Sansom)
Тигруля - Виктор Костецкий (Jim Cummings)
Суслик - Михаил Хрусталев (Michael Gough)
Ру - Никита Морозов (Nikita Hopkins)
Кенга - Мария Соснякова (Kath Soucie)
Ушастик - Дмитрий Лагачев (Peter Cullen)
Кристофер Робин - Захар Рядных (William Green)-Качество: DVDRip
Формат: AVI-Видео: 704x528 (4:3), 23.976 fps, XviD build 65 ~2394 kbps avg, 0.27 bit/pixel
Аудио 1: 48 kHz, AC3 Dolby Digital, 2/0 (L,R) ch, ~192 kbps - DUB
Аудио 2: 48 kHz, AC3 Dolby Digital, 2/0 (L,R) ch, ~320 kbps - DVO
Аудио 3: 48 kHz, AC3 Dolby Digital, 2/0 (L,R) ch, ~320 kbps - Eng
Субтитры: отсутствуют-Описание: В сочельник Хрюня, Тигруля, Кролик, Ушастик, Кенга и Ру пришли в гости к своему другу Медвежонку Винни, чтобы помочь ему нарядить елку! Когда все праздничные приготовления были завершены, друзья устроились около камина в ожидании Санты. Они решили рассказать малышу Ру о невероятной истории, которая произошла ровно год назад...-
Доп. информация:
Yabrat - рип
Lexa1988-L1 - дублированная дорожка
*Sergeant_am* - сведение

Отчёт MediaInfo

ОбщееПолное имя : C:\Винни Пух. С новым Мёдом.aviФормат : AVIФормат/Информация : Audio Video InterleaveРазмер файла : 1,45 ГбайтПродолжительность : 1 ч. 3 м.Общий поток : 3247 Кбит/секПрограмма кодирования : VirtualDubModRus 1.5.10.2 (build 2542/release)Библиотека кодирования : VirtualDubMod build 2542/release
ВидеоИдентификатор : 0Формат : MPEG-4 VisualПрофиль формата : Advanced Simple@L5Параметр BVOP формата : 2Параметр QPel формата : НетПараметр GMC формата : Без точки переходаПараметр матрицы формата : ВыборочнаяИдентификатор кодека : XVIDИдентификатор кодека/Подсказка : XviDПродолжительность : 1 ч. 3 м.Битрейт : 2396 Кбит/секШирина : 704 пикселяВысота : 528 пикселейСоотношение сторон : 4:3Частота кадров : 23,976 кадра/секЦветовое пространство : YUVСубдискретизация насыщенности : 4:2:0Битовая глубина : 8 битТип развёртки : ПрогрессивнаяМетод сжатия : С потерямиБит/(Пиксели*Кадры) : 0.269Размер потока : 1,07 Гбайт (74%)Библиотека кодирования : XviD 65
Аудио #1Идентификатор : 1Формат : AC-3Формат/Информация : Audio Coding 3Расширение режима : CM (complete main)Параметр Endianness формата : BigИдентификатор кодека : 2000Продолжительность : 1 ч. 3 м.Вид битрейта : ПостоянныйБитрейт : 192 Кбит/секКаналы : 2 каналаРасположение каналов : Front: L RЧастота : 48,0 КГцБитовая глубина : 16 битМетод сжатия : С потерямиРазмер потока : 87,7 Мбайт (6%)Выравнивание : Разделение по промежуткамПродолжительность промежутка : 42 мс. (1,00 видеокадр)Время предзагрузки промежутка : 500 мс.
Аудио #2Идентификатор : 2Формат : AC-3Формат/Информация : Audio Coding 3Расширение режима : CM (complete main)Параметр Endianness формата : BigИдентификатор кодека : 2000Продолжительность : 1 ч. 3 м.Вид битрейта : ПостоянныйБитрейт : 320 Кбит/секКаналы : 2 каналаРасположение каналов : Front: L RЧастота : 48,0 КГцБитовая глубина : 16 битМетод сжатия : С потерямиРазмер потока : 146 Мбайт (10%)Выравнивание : Разделение по промежуткамПродолжительность промежутка : 42 мс. (1,00 видеокадр)Время предзагрузки промежутка : 500 мс.
Аудио #3Идентификатор : 3Формат : AC-3Формат/Информация : Audio Coding 3Профиль формата : Dolby DigitalРасширение режима : CM (complete main)Параметр Endianness формата : BigИдентификатор кодека : 2000Продолжительность : 1 ч. 3 м.Вид битрейта : ПостоянныйБитрейт : 320 Кбит/секКаналы : 2 каналаРасположение каналов : Front: L RЧастота : 48,0 КГцБитовая глубина : 16 битМетод сжатия : С потерямиРазмер потока : 146 Мбайт (10%)Выравнивание : Разделение по промежуткамПродолжительность промежутка : 42 мс. (1,00 видеокадр)Время предзагрузки промежутка : 500 мс.

Скриншоты


_________________
Показать сообщения:    

Текущее время: Сегодня 05:37

Часовой пояс: GMT



Вы не можете начинать темы
Вы не можете отвечать на сообщения
Вы не можете редактировать свои сообщения
Вы не можете удалять свои сообщения
Вы не можете голосовать в опросах
Вы не можете прикреплять файлы к сообщениям
Вы не можете скачивать файлы
Наши партнеры: интернет магазин Ивановского трикотажа textilla.ru